Home > Mini-HD > [MINI-HD 1080P] The Son of Bigfoot (2017) บิ๊กฟุต ภารกิจเซฟพ่อ [พากย์ไทยโรง + อังกฤษ] [ซับอังกฤษ] [MKV] [ONE2UP]

[MINI-HD 1080P] The Son of Bigfoot (2017) บิ๊กฟุต ภารกิจเซฟพ่อ [พากย์ไทยโรง + อังกฤษ] [ซับอังกฤษ] [MKV] [ONE2UP]

[MINI-HD 1080P] The Son of Bigfoot (2017) บิ๊กฟุต ภารกิจเซฟพ่อ

เรื่องราวของอดัมที่ออกผจญภัยเพื่อตามหาพ่อของเขาที่หายหน้าไปนานแสนนาน ก่อนจะค้นพบว่าจริงๆ แล้วพ่อของเขาคือสัตว์ในตำนาน บิ๊กฟุต เป็นเวลาหลายปีที่เขาได้หลบซ่อนตัวอยู่ในป่าเพื่อปกป้องตัวเขาเองและครอบครัวจากองค์กร HairCo องค์กรใหญ่ยักษ์ที่กำลังทำการทดลองกับ DNA ชนิดพิเศษ ทั้งพ่อและลูกชายต่างก็ต้องรื้อฟื้นความสัมพันธ์ที่ขาดหายกันไปนาน อดัมได้ค้นพบว่าเขามีพรสวรรค์เป็นพลังเหนือธรรมชาติ แต่ในขณะนั้นเอง HairCo ก็ต้องการตัวเขาเพื่อใช้เป็นทางผ่านไปสู่การค้นพบ บิ๊กฟุต

MINI Super-HQ.The.Son.of.Bigfoot.2017.1080p.WEB-DL.DD5.1.H264[Load2up.com].mkv
Format : Matroska
Format version : Version 4 / Version 2
File size : 3.51 GiB
Duration : 1 h 31 min
Overall bit rate : 5 481 kb/s
Movie name : The.Son.of.Bigfoot.2017.1080p.WEB-DL.DD5.1.H264
Encoded date : UTC 2017-11-20 11:00:20
Writing application : mkvmerge v17.0.0 (‘Be Ur Friend’) 64-bit
Writing library : libebml v1.3.5 + libmatroska v1.4.8
Cover : Yes
Attachments : small_cover.jpg / small_cover_land.jpg / cover.jpg / cover_land.jpg

Video
ID : 1
Format : AVC
Format/Info : Advanced Video Codec
Format profile : [email protected]
Format settings, CABAC : Yes
Format settings, ReFrames : 5 frames
Codec ID : V_MPEG4/ISO/AVC
Duration : 1 h 31 min
Bit rate : 4 509 kb/s
Width : 1 920 pixels
Height : 798 pixels
Display aspect ratio : 2.40:1
Frame rate mode : Constant
Frame rate : 23.976 (23976/1000) FPS
Color space : YUV
Chroma subsampling : 4:2:0
Bit depth : 8 bits
Scan type : Progressive
Bits/(Pixel*Frame) : 0.123
Stream size : 2.89 GiB (82%)
Title : The.Son.of.Bigfoot.2017.1080p.WEB-DL.DD5.1.H264
Language : English
Default : Yes
Forced : No
Color range : Limited
Color primaries : BT.709
Transfer characteristics : BT.709
Matrix coefficients : BT.709

Audio #1
ID : 2
Format : AC-3
Format/Info : Audio Coding 3
Format settings, Endianness : Big
Codec ID : A_AC3
Duration : 1 h 31 min
Bit rate mode : Constant
Bit rate : 384 kb/s
Channel(s) : 6 channels
Channel positions : Front: L C R, Side: L R, LFE
Sampling rate : 48.0 kHz
Frame rate : 31.250 FPS (1536 spf)
Bit depth : 16 bits
Compression mode : Lossy
Stream size : 252 MiB (7%)
Title : ENGLISH.DL.DD5.1
Language : English
Service kind : Complete Main
Default : No
Forced : No

Audio #2
ID : 3
Format : AC-3
Format/Info : Audio Coding 3
Format settings, Endianness : Big
Codec ID : A_AC3
Duration : 1 h 31 min
Bit rate mode : Constant
Bit rate : 384 kb/s
Channel(s) : 2 channels
Channel positions : Front: L R
Sampling rate : 48.0 kHz
Frame rate : 31.250 FPS (1536 spf)
Bit depth : 16 bits
Compression mode : Lossy
Stream size : 252 MiB (7%)
Title : ac3 2.0 – 384 Kbps
Language : Thai
Service kind : Complete Main
Default : No
Forced : No

Audio #3
ID : 4
Format : AC-3
Format/Info : Audio Coding 3
Format settings, Endianness : Big
Codec ID : A_AC3
Duration : 1 h 31 min
Bit rate mode : Constant
Bit rate : 192 kb/s
Channel(s) : 2 channels
Channel positions : Front: L R
Sampling rate : 48.0 kHz
Frame rate : 31.250 FPS (1536 spf)
Bit depth : 16 bits
Compression mode : Lossy
Stream size : 126 MiB (4%)
Title : ac3 2.0 – 192 Kbps
Language : Thai
Service kind : Complete Main
Default : Yes
Forced : Yes

Text #1
ID : 5
Format : UTF-8
Codec ID : S_TEXT/UTF8
Codec ID/Info : UTF-8 Plain Text
Duration : 1 h 31 min
Bit rate : 72 b/s
Count of elements : 1691
Stream size : 48.3 KiB (0%)
Title : SRT
Language : English
Default : No
Forced : No

Text #2
ID : 6
Format : PGS
Muxing mode : zlib
Codec ID : S_HDMV/PGS
Codec ID/Info : Picture based subtitle format used on BDs/HD-DVDs
Duration : 1 h 31 min
Bit rate : 35.6 kb/s
Count of elements : 3386
Stream size : 23.3 MiB (1%)
Title : ENGLISH
Language : English
Default : Yes
Forced : No



หมายเหตุ ทุกเว็บโหลดแทนกันได้ แต่ต้องเปลี่ยนชื่อให้เรียงกันด้วย

สำหรับสมาชิก VIP เท่านั้น!

[restrict …]

|——————————————————————|

|——————————————————————|

[/restrict]