Home > Mini-HD > [MINI-HD 1080P] Secrets in The Hot Spring (2018) สามแสบแอบท้าผี [Rip] [Soundtrack บรรยายไทย] [MKV]

[MINI-HD 1080P] Secrets in The Hot Spring (2018) สามแสบแอบท้าผี [Rip] [Soundtrack บรรยายไทย] [MKV]

[MINI-HD 1080P] Secrets in The Hot Spring (2018) สามแสบแอบท้าผี

Secrets in the Hot Spring.-Th[Load2up.com].mkv
Format : Matroska
Format version : Version 4 / Version 2
File size : 3.65 GiB
Duration : 1 h 48 min
Overall bit rate : 4 820 kb/s
Encoded date : UTC 2019-01-01 12:08:00
Writing application : mkvmerge v21.0.0 (‘Tardigrades Will Inherit The Earth’) 64-bit
Writing library : libebml v1.3.5 + libmatroska v1.4.8

Video
ID : 1
Format : AVC
Format/Info : Advanced Video Codec
Format profile : [email protected]
Format settings, CABAC : Yes
Format settings, RefFrames : 3 frames
Codec ID : V_MPEG4/ISO/AVC
Duration : 1 h 48 min
Bit rate : 4 403 kb/s
Width : 1 920 pixels
Height : 1 080 pixels
Display aspect ratio : 16:9
Frame rate mode : Constant
Frame rate : 24.000 FPS
Color space : YUV
Chroma subsampling : 4:2:0
Bit depth : 8 bits
Scan type : Progressive
Bits/(Pixel*Frame) : 0.088
Stream size : 3.33 GiB (91%)
Default : Yes
Forced : No

Audio
ID : 2
Format : AC-3
Format/Info : Audio Coding 3
Format settings, Endianness : Big
Codec ID : A_AC3
Duration : 1 h 48 min
Bit rate mode : Constant
Bit rate : 384 kb/s
Channel(s) : 6 channels
Channel positions : Front: L C R, Side: L R, LFE
Sampling rate : 48.0 kHz
Frame rate : 31.250 FPS (1536 SPF)
Bit depth : 16 bits
Compression mode : Lossy
Delay relative to video : -41 ms
Stream size : 297 MiB (8%)
Language : Chinese
Service kind : Complete Main
Default : Yes
Forced : No

Text #1
ID : 3
Format : PGS
Muxing mode : zlib
Codec ID : S_HDMV/PGS
Codec ID/Info : Picture based subtitle format used on BDs/HD-DVDs
Duration : 1 h 45 min
Bit rate : 45.8 kb/s
Count of elements : 3006
Stream size : 34.5 MiB (1%)
Language : Thai
Default : Yes
Forced : No

Text #2
ID : 4
Format : VobSub
Muxing mode : zlib
Codec ID : S_VOBSUB
Codec ID/Info : Picture based subtitle format used on DVDs
Duration : 1 h 45 min
Bit rate : 5 821 b/s
Count of elements : 1503
Stream size : 4.39 MiB (0%)
Language : Thai
Default : No
Forced : No



หมายเหตุ ทุกเว็บโหลดแทนกันได้ แต่ต้องเปลี่ยนชื่อให้เรียงกันด้วย

สำหรับสมาชิก VIP เท่านั้น!

[restrict …]

|——————————————————————|

|——————————————————————|

[/restrict]