Home > Master > [MINI-HD 1080P] Samui Song (2017) ไม่มีสมุยสำหรับเธอ [พากย์ไทยDTS] [ซับอังกฤษ] [MASTER] [MKV] [ONE2UP]

[MINI-HD 1080P] Samui Song (2017) ไม่มีสมุยสำหรับเธอ [พากย์ไทยDTS] [ซับอังกฤษ] [MASTER] [MKV] [ONE2UP]

[MINI-HD 1080P] Samui Song (2017) ไม่มีสมุยสำหรับเธอ

{MINI Super-HQ}_Samui.Song.2016.1080p.BrRip.DTS.x264[Load2up.com].mkv
Format : Matroska
Format version : Version 4 / Version 2
File size : 3.47 GiB
Duration : 1 h 48 min
Overall bit rate : 4 595 kb/s
Movie name : {MINI Super-HQ}_Samui.Song.2016.1080p.BrRip.DTS.x264
Encoded date : UTC 2010-02-22 21:41:31
Writing application : mkvmerge v5.9.0 (‘On The Loose’) built on Dec 9 2012 15:37:01
Writing library : libebml v1.3.0 + libmatroska v1.4.0

Video
ID : 1
Format : AVC
Format/Info : Advanced Video Codec
Format profile : [email protected]
Format settings, CABAC : Yes
Format settings, ReFrames : 4 frames
Codec ID : V_MPEG4/ISO/AVC
Duration : 1 h 48 min
Bit rate : 3 800 kb/s
Width : 1 920 pixels
Height : 1 080 pixels
Display aspect ratio : 16:9
Frame rate mode : Constant
Frame rate : 23.976 (24000/1001) FPS
Color space : YUV
Chroma subsampling : 4:2:0
Bit depth : 8 bits
Scan type : Progressive
Bits/(Pixel*Frame) : 0.076
Stream size : 2.83 GiB (82%)
Title : {MINI Super-HQ}_Samui.Song.2016.1080p.BrRip.DTS.x264
Writing library : x264 core 146 r2538 121396c
Language : Thai
Default : Yes
Forced : No

Audio
ID : 2
Format : DTS
Format/Info : Digital Theater Systems
Mode : 16
Format settings, Endianness : Big
Codec ID : A_DTS
Duration : 1 h 48 min
Bit rate mode : Constant
Bit rate : 755 kb/s
Channel(s) : 6 channels
Channel positions : Front: L C R, Side: L R, LFE
Sampling rate : 48.0 kHz
Frame rate : 93.750 FPS (512 spf)
Bit depth : 24 bits
Compression mode : Lossy
Stream size : 583 MiB (16%)
Title : Thai DTS
Language : Thai
Default : Yes
Forced : Yes

Text #1
ID : 3
Format : VobSub
Codec ID : S_VOBSUB
Codec ID/Info : Picture based subtitle format used on DVDs
Language : Thai
Default : Yes
Forced : Yes

Text #2
ID : 4
Format : PGS
Codec ID : S_HDMV/PGS
Codec ID/Info : Picture based subtitle format used on BDs/HD-DVDs
Title : English
Language : English
Default : No
Forced : No

Text #3
ID : 5
Format : PGS
Codec ID : S_HDMV/PGS
Codec ID/Info : Picture based subtitle format used on BDs/HD-DVDs
Title : English PGS
Language : English
Default : No
Forced : No



หมายเหตุ ทุกเว็บโหลดแทนกันได้ แต่ต้องเปลี่ยนชื่อให้เรียงกันด้วย

สำหรับสมาชิก VIP เท่านั้น!

[restrict …]

|——————————————————————|

|——————————————————————|

[/restrict]