Home > Mini-HD > [MINI-HD 1080P] RUN THIS TOWN (2019) เมืองอาชญากล [Sound:Eng AC3 5.1/Thai 2.0:Master] [SUB:Eng/Thai.PGS] [MKV]

[MINI-HD 1080P] RUN THIS TOWN (2019) เมืองอาชญากล [Sound:Eng AC3 5.1/Thai 2.0:Master] [SUB:Eng/Thai.PGS] [MKV]

RUN THIS TOWN (2019) เมืองอาชญากล

Run.This.Town.2019.1080p.WEB-DL.DD5.1.H264Load2up.com.mkv
Format : Matroska
Format version : Version 4
File size : 3.63 GiB
Duration : 1 h 38 min
Overall bit rate : 5 278 kb/s
Movie name : Run.This.Town.2019.1080p.WEB-DL.DD5.1.H264
Encoded date : UTC 2020-05-11 07:19:05
Writing application : mkvmerge v46.0.0 (‘No Deeper Escape’) 64-bit
Writing library : libebml v1.3.10 + libmatroska v1.5.2
Cover : Yes
Attachments : cover.jpg

Video
ID : 1
Format : AVC
Format/Info : Advanced Video Codec
Format profile : [email protected]
Format settings : CABAC / 1 Ref Frames
Format settings, CABAC : Yes
Format settings, ReFrames : 1 frame
Format settings, GOP : M=1, N=25
Codec ID : V_MPEG4/ISO/AVC
Duration : 1 h 38 min
Bit rate mode : Constant
Bit rate : 4 500 kb/s
Width : 1 920 pixels
Height : 804 pixels
Display aspect ratio : 2.40:1
Frame rate mode : Constant
Frame rate : 29.970 (30000/1001) FPS
Color space : YUV
Chroma subsampling : 4:2:0
Bit depth : 8 bits
Scan type : Progressive
Bits/(Pixel*Frame) : 0.097
Stream size : 3.09 GiB (85%)
Title : Run.This.Town.2019.1080p.WEB-DL.DD5.1.H264
Language : English
Default : Yes
Forced : No

Audio #1
ID : 2
Format : AC-3
Format/Info : Audio Coding 3
Commercial name : Dolby Digital
Codec ID : A_AC3
Duration : 1 h 38 min
Bit rate mode : Constant
Bit rate : 320 kb/s
Channel(s) : 2 channels
Channel layout : L R
Sampling rate : 44.1 kHz
Frame rate : 28.711 FPS (1536 SPF)
Bit depth : 16 bits
Compression mode : Lossy
Stream size : 225 MiB (6%)
Title : 2.0 AC3 Th.Mst 320k 225m
Language : Thai
Service kind : Complete Main
Default : Yes
Forced : No

Audio #2
ID : 3
Format : AC-3
Format/Info : Audio Coding 3
Commercial name : Dolby Digital
Codec ID : A_AC3
Duration : 1 h 38 min
Bit rate mode : Constant
Bit rate : 384 kb/s
Channel(s) : 6 channels
Channel layout : L R C LFE Ls Rs
Sampling rate : 48.0 kHz
Frame rate : 31.250 FPS (1536 SPF)
Bit depth : 16 bits
Compression mode : Lossy
Stream size : 270 MiB (7%)
Title : 5.1 AC3 EN 384k 270m
Language : English
Service kind : Complete Main
Default : No
Forced : No

Text #1
ID : 4
Format : PGS
Muxing mode : zlib
Codec ID : S_HDMV/PGS
Codec ID/Info : Picture based subtitle format used on BDs/HD-DVDs
Duration : 1 h 37 min
Bit rate : 40.5 kb/s
Count of elements : 2818
Stream size : 28.3 MiB (1%)
Title : TH.PGS.SILVER.80-60-10
Language : Thai
Default : Yes
Forced : No

Text #2
ID : 5
Format : PGS
Muxing mode : zlib
Codec ID : S_HDMV/PGS
Codec ID/Info : Picture based subtitle format used on BDs/HD-DVDs
Duration : 1 h 34 min
Bit rate : 41.3 kb/s
Count of elements : 3706
Stream size : 28.0 MiB (1%)
Title : EN.PGS.YELLOW.85-65-10
Language : English
Default : No
Forced : No

Text #3
ID : 6
Format : PGS
Muxing mode : zlib
Codec ID : S_HDMV/PGS
Codec ID/Info : Picture based subtitle format used on BDs/HD-DVDs
Duration : 1 h 37 min
Bit rate : 44.9 kb/s
Count of elements : 3950
Stream size : 31.5 MiB (1%)
Title : EN.SDH.PGS.PINK.90-70-10
Language : English
Default : No
Forced : No



หมายเหตุ ทุกเว็บโหลดแทนกันได้ แต่ต้องเปลี่ยนชื่อให้เรียงกันด้วย


สำหรับสมาชิก VIP เท่านั้น!

[restrict …]

|——————————————————————|

|——————————————————————|

[/restrict]

%d bloggers like this: