Home > Mini-HD > [MINI-HD 1080P] RAMBO 5 LAST BLOOD (2019) แรมโบ้ 5 นักรบคนสุดท้าย [พากย์ไทย+อังกฤษ] [SubThai+Eng] [MKV]

[MINI-HD 1080P] RAMBO 5 LAST BLOOD (2019) แรมโบ้ 5 นักรบคนสุดท้าย [พากย์ไทย+อังกฤษ] [SubThai+Eng] [MKV]

RAMBO 5 LAST BLOOD (2019) แรมโบ้ 5 นักรบคนสุดท้าย

Rambo.Last.Blood.2019.1080p.BluRay[Load2up.com].mkv
Format : Matroska
Format version : Version 4
File size : 3.74 GiB
Duration : 1 h 41 min
Overall bit rate : 5 293 kb/s
Movie name : Rambo.Last.Blood.2019.1080p.BluRay.
Encoded date : UTC 2020-02-10 04:40:59
Writing application : mkvmerge v43.0.0 (‘The Quartermaster’) 64-bit
Writing library : libebml v1.3.10 + libmatroska v1.5.2
Cover : Yes
Attachments : cover1.jpg

Video
ID : 1
Format : AVC
Format/Info : Advanced Video Codec
Format profile : [email protected]
Format settings : CABAC / 1 Ref Frames
Format settings, CABAC : Yes
Format settings, ReFrames : 1 frame
Format settings, GOP : M=1, N=25
Codec ID : V_MPEG4/ISO/AVC
Duration : 1 h 41 min
Bit rate mode : Constant
Bit rate : 4 000 kb/s
Width : 1 920 pixels
Height : 800 pixels
Display aspect ratio : 2.40:1
Frame rate mode : Constant
Frame rate : 29.970 (30000/1001) FPS
Color space : YUV
Chroma subsampling : 4:2:0
Bit depth : 8 bits
Scan type : Progressive
Bits/(Pixel*Frame) : 0.087
Stream size : 2.82 GiB (75%)
Title : Rambo.Last.Blood.2019.1080p.BluRay.
Language : English
Default : Yes
Forced : No

Audio #1
ID : 2
Format : AC-3
Format/Info : Audio Coding 3
Commercial name : Dolby Digital
Codec ID : A_AC3
Duration : 1 h 41 min
Bit rate mode : Constant
Bit rate : 640 kb/s
Channel(s) : 2 channels
Channel layout : L R
Sampling rate : 44.1 kHz
Frame rate : 28.711 FPS (1536 SPF)
Bit depth : 16 bits
Compression mode : Lossy
Stream size : 463 MiB (12%)
Title : 2.0 AC3 TH 640k 462m
Language : Thai
Service kind : Complete Main
Default : Yes
Forced : No

Audio #2
ID : 3
Format : AC-3
Format/Info : Audio Coding 3
Commercial name : Dolby Digital
Codec ID : A_AC3
Duration : 1 h 41 min
Bit rate mode : Constant
Bit rate : 640 kb/s
Channel(s) : 2 channels
Channel layout : L R
Sampling rate : 44.1 kHz
Frame rate : 28.711 FPS (1536 SPF)
Bit depth : 16 bits
Compression mode : Lossy
Stream size : 463 MiB (12%)
Title : 2.0 AC3 EN 640k 462m
Language : English
Service kind : Complete Main
Default : No
Forced : No

Text #1
ID : 4
Format : PGS
Muxing mode : zlib
Codec ID : S_HDMV/PGS
Codec ID/Info : Picture based subtitle format used on BDs/HD-DVDs
Duration : 1 h 30 min
Bit rate : 13.3 kb/s
Count of elements : 1386
Stream size : 8.61 MiB (0%)
Title : TH.PGS.Yellow.70-67-18
Language : Thai
Default : Yes
Forced : No

Text #2
ID : 5
Format : PGS
Muxing mode : zlib
Codec ID : S_HDMV/PGS
Codec ID/Info : Picture based subtitle format used on BDs/HD-DVDs
Duration : 1 h 30 min
Bit rate : 9 620 b/s
Count of elements : 1258
Stream size : 6.20 MiB (0%)
Title : EN.PGS.White.70-45-10
Language : English
Default : No
Forced : No



หมายเหตุ ทุกเว็บโหลดแทนกันได้ แต่ต้องเปลี่ยนชื่อให้เรียงกันด้วย

สำหรับสมาชิก VIP เท่านั้น!

[restrict …]

|——————————————————————|

|——————————————————————|

[/restrict]

%d bloggers like this: