Home > Mini-HD > [MINI-HD 1080P] Pacific Rim: Uprising (2018) แปซิฟิค ริม ปฏิวัติพลิกโลก [WEB-DL] [พากย์ไทยโรง + อังกฤษ] [ซับอังกฤษ] [MKV] [ONE2UP]

[MINI-HD 1080P] Pacific Rim: Uprising (2018) แปซิฟิค ริม ปฏิวัติพลิกโลก [WEB-DL] [พากย์ไทยโรง + อังกฤษ] [ซับอังกฤษ] [MKV] [ONE2UP]

[MINI-HD 1080P] Pacific Rim: Uprising (2018) แปซิฟิค ริม ปฏิวัติพลิกโลก

Pacific.Rim.2.Uprising.2018.1080p.WEB-DL.AC3.THR2.0.H264[Load2up.com].mkv
Format : Matroska
Format version : Version 4 / Version 2
File size : 3.84 GiB
Duration : 1 h 50 min
Overall bit rate : 4 967 kb/s
Movie name : Pacific.Rim.2.Uprising.2018.1080p.WEB-DL.AC3.THR2.0.H264
Encoded date : UTC 2018-05-17 02:08:30
Writing application : mkvmerge v9.9.0 (‘Pick Up’) 64bit
Writing library : libebml v1.3.4 + libmatroska v1.4.5
Cover : Yes
Attachments : cover.jpg

Video
ID : 1
Format : AVC
Format/Info : Advanced Video Codec
Format profile : [email protected]
Format settings, CABAC : Yes
Format settings, ReFrames : 5 frames
Codec ID : V_MPEG4/ISO/AVC
Duration : 1 h 50 min
Bit rate : 4 516 kb/s
Width : 1 916 pixels
Height : 796 pixels
Display aspect ratio : 2.40:1
Frame rate mode : Constant
Frame rate : 23.976 (23976/1000) FPS
Color space : YUV
Chroma subsampling : 4:2:0
Bit depth : 8 bits
Scan type : Progressive
Bits/(Pixel*Frame) : 0.124
Stream size : 3.49 GiB (91%)
Title : Pacific.Rim.2.Uprising.2018.1080p.WEB-DL.AC3.THR2.0.H264
Language : English
Default : Yes
Forced : No
Color range : Limited
Color primaries : BT.709
Transfer characteristics : BT.709
Matrix coefficients : BT.709

Audio #1
ID : 2
Format : AC-3
Format/Info : Audio Coding 3
Format settings, Endianness : Big
Codec ID : A_AC3
Duration : 1 h 50 min
Bit rate mode : Constant
Bit rate : 192 kb/s
Channel(s) : 2 channels
Channel positions : Front: L R
Sampling rate : 48.0 kHz
Frame rate : 31.250 FPS (1536 spf)
Bit depth : 16 bits
Compression mode : Lossy
Delay relative to video : -43 ms
Stream size : 152 MiB (4%)
Title : THR 2.0
Language : Thai
Service kind : Complete Main
Default : Yes
Forced : Yes

Audio #2
ID : 3
Format : AAC
Format/Info : Advanced Audio Codec
Format profile : LC
Codec ID : A_AAC
Duration : 1 h 50 min
Bit rate : 256 kb/s
Channel(s) : 2 channels
Channel positions : Front: L R
Sampling rate : 48.0 kHz
Frame rate : 46.875 FPS (1024 spf)
Compression mode : Lossy
Delay relative to video : -43 ms
Stream size : 203 MiB (5%)
Title : English 2.0
Language : English
Default : No
Forced : No

Text
ID : 4
Format : UTF-8
Codec ID : S_TEXT/UTF8
Codec ID/Info : UTF-8 Plain Text
Duration : 1 h 40 min
Bit rate : 57 b/s
Count of elements : 1127
Stream size : 42.3 KiB (0%)
Title : English Srt
Language : English
Default : No
Forced : No



หมายเหตุ ทุกเว็บโหลดแทนกันได้ แต่ต้องเปลี่ยนชื่อให้เรียงกันด้วย

สำหรับสมาชิก VIP เท่านั้น!

[restrict …]

|——————————————————————|

|——————————————————————|

[/restrict]

%d bloggers like this: