Home > Mini-HD > [MINI-HD 1080P] Occupation (2018) มันมายึดครอง [Soundtrack บรรยายไทย] [MKV]

[MINI-HD 1080P] Occupation (2018) มันมายึดครอง [Soundtrack บรรยายไทย] [MKV]

[MINI-HD 1080P] Occupation (2018) มันมายึดครอง

Occupation.2018.1080p.WEB-DL.DD5.1.H264-FGT.SubThai[Load2up.com].mkv
Format : Matroska
Format version : Version 4 / Version 2
File size : 4.14 GiB
Duration : 1 h 59 min
Overall bit rate : 4 935 kb/s
Movie name : Occupation.2018.1080p.WEB-DL.DD5.1.H264
Encoded date : UTC 2018-08-22 12:02:02
Writing application : mkvmerge v25.0.0 (‘Prog Noir’) 64-bit
Writing library : libebml v1.3.6 + libmatroska v1.4.9
Cover : Yes
Attachments : small_cover.jpg / small_cover_land.jpg / cover.jpg / cover_land.jpg

Video
ID : 1
Format : AVC
Format/Info : Advanced Video Codec
Format profile : [email protected]
Format settings, CABAC : Yes
Format settings, ReFrames : 5 frames
Codec ID : V_MPEG4/ISO/AVC
Duration : 1 h 59 min
Bit rate : 4 546 kb/s
Width : 1 912 pixels
Height : 808 pixels
Display aspect ratio : 2.35:1
Frame rate mode : Constant
Frame rate : 23.976 (24000/1001) FPS
Color space : YUV
Chroma subsampling : 4:2:0
Bit depth : 8 bits
Scan type : Progressive
Bits/(Pixel*Frame) : 0.123
Stream size : 3.81 GiB (92%)
Title : Occupation.2018.1080p.WEB-DL.DD5.1.H264-FGT
Language : English
Default : Yes
Forced : No
Color range : Limited
Color primaries : BT.709
Transfer characteristics : BT.709
Matrix coefficients : BT.709

Audio
ID : 2
Format : AC-3
Format/Info : Audio Coding 3
Format settings, Endianness : Big
Codec ID : A_AC3
Duration : 1 h 59 min
Bit rate mode : Constant
Bit rate : 384 kb/s
Channel(s) : 6 channels
Channel positions : Front: L C R, Side: L R, LFE
Sampling rate : 48.0 kHz
Frame rate : 31.250 FPS (1536 spf)
Bit depth : 16 bits
Compression mode : Lossy
Delay relative to video : -42 ms
Stream size : 329 MiB (8%)
Title : Occupation.2018.1080p.WEB-DL.DD5.1.H264-FGT
Language : English
Service kind : Complete Main
Default : Yes
Forced : No

Text #1
ID : 3
Format : UTF-8
Codec ID : S_TEXT/UTF8
Codec ID/Info : UTF-8 Plain Text
Duration : 1 h 52 min
Bit rate : 50 b/s
Count of elements : 1257
Stream size : 41.6 KiB (0%)
Language : English
Default : No
Forced : No

Text #2
ID : 4
Format : UTF-8
Codec ID : S_TEXT/UTF8
Codec ID/Info : UTF-8 Plain Text
Duration : 1 h 52 min
Bit rate : 106 b/s
Count of elements : 1261
Stream size : 87.6 KiB (0%)
Title : Thai.SRT
Language : Thai
Default : Yes
Forced : Yes

Text #3
ID : 5
Format : VobSub
Muxing mode : zlib
Codec ID : S_VOBSUB
Codec ID/Info : Picture based subtitle format used on DVDs
Duration : 1 h 52 min
Bit rate : 6 669 b/s
Count of elements : 1261
Stream size : 5.37 MiB (0%)
Title : Thai.Vob
Language : Thai
Default : No
Forced : No



หมายเหตุ ทุกเว็บโหลดแทนกันได้ แต่ต้องเปลี่ยนชื่อให้เรียงกันด้วย

สำหรับสมาชิก VIP เท่านั้น!

[restrict …]

|——————————————————————|

|——————————————————————|

[/restrict]

%d bloggers like this: