Home > Mini-HD > [MINI-HD 1080P] The Mummy (2017) เดอะมัมมี่ [พากย์ไทยโรง + อังกฤษ] [MKV] [ONE2UP] [Filefenix]

[MINI-HD 1080P] The Mummy (2017) เดอะมัมมี่ [พากย์ไทยโรง + อังกฤษ] [MKV] [ONE2UP] [Filefenix]

[MINI-HD 1080P] The Mummy (2017) เดอะมัมมี่

The Mummy 2017 นิค มอร์ตัน (Tom Cruise) นายทหารรับจ้างขโมยของโบราณไปขายตลาดมืด บังเอิญไปพบกับโลงศพหินโบราณของ “อามาเนต์” (Sofia Boutella) ว่าที่ฟาโรต์ที่ถูกทำให้เป็นมัมมี่ทั้งเป็น หลังสังหารฟาโรห์ผู้เป็นบิดา ราชินี และน้องชาย นิคร่วมมือกับเจนนี ฮัลซี่ (Annabelle Wallis) นักโบราณคดีสาว ช่วยกันนำโลงศพของ “อามาเนต์” ออกจากทะเลทรายในอิรักไปที่อังกฤษ แต่ด้วยพลังอำนาจและความเคียดแค้นร่วม 5 พันปีของ “อามาเนต์” ทำให้เครื่องบินลำเลียงโลงมัมมี่ตก ทุกคนบนเครื่องบินเสียชีวิตทั้งหมด เว้นแต่เจนนีที่ได้รับการช่วยเหลือจากนิคก่อนเครื่องตก ส่วนนิค มอร์ตัน ถูกชุบชีวิตขึ้นมาพร้อมกับญาณทิพย์ที่เชื่อมต่อกับอามาเนต์ได้ เพราะเขาคือผู้ที่อามาเนต์เลือกให้เป็นกายหยาบของ เซธ เทพแห่งความตาย ที่ต้องการทำลายล้างโลก นิคจะรอดพ้นเงื้อมมือของอสูรพันปีนี้หรือไม่

The.Mummy.2017.1080p.KORSUB.HDRip.x264.AC32.0.ThaIRonG[Load2up.com].mkv
Format : Matroska
Format version : Version 4 / Version 2
File size : 4.22 GiB
Duration : 1 h 50 min
Overall bit rate : 5 472 kb/s
Movie name : The.Mummy.2017.1080p.KORSUB.HDRip.x264.AC32.0.ThaIRonG[Load2up.com] Encoded date : UTC 2017-07-11 14:51:42
Writing application : mkvmerge v10.0.0 (‘To Drown In You’) 64bit
Writing library : libebml v1.3.4 + libmatroska v1.4.5

Video
ID : 1
Format : AVC
Format/Info : Advanced Video Codec
Format profile : [email protected]
Format settings, CABAC : Yes
Format settings, ReFrames : 4 frames
Codec ID : V_MPEG4/ISO/AVC
Duration : 1 h 50 min
Bit rate : 5 107 kb/s
Width : 1 920 pixels
Height : 800 pixels
Display aspect ratio : 2.40:1
Frame rate mode : Constant
Frame rate : 30.000 FPS
Color space : YUV
Chroma subsampling : 4:2:0
Bit depth : 8 bits
Scan type : Progressive
Bits/(Pixel*Frame) : 0.111
Stream size : 3.89 GiB (92%)
Title : The.Mummy.2017.1080p.KORSUB.HDRip.x264.AC32.0.ThaIRonG-
Writing library : x264 core 142 r2479 dd79a61
Language : Korean
Default : Yes
Forced : No
Color range : Limited
Color primaries : BT.709
Transfer characteristics : BT.709
Matrix coefficients : BT.709

Audio #1
ID : 2
Format : AC-3
Format/Info : Audio Coding 3
Format settings, Endianness : Big
Codec ID : A_AC3
Duration : 1 h 50 min
Bit rate mode : Constant
Bit rate : 192 kb/s
Channel(s) : 2 channels
Channel positions : Front: L R
Sampling rate : 48.0 kHz
Frame rate : 31.250 FPS (1536 spf)
Bit depth : 16 bits
Compression mode : Lossy
Delay relative to video : -109 ms
Stream size : 152 MiB (4%)
Title : AC-3 ThaIRonG 2.0
Language : Thai
Service kind : Complete Main
Default : Yes
Forced : No

Audio #2
ID : 3
Format : AAC
Format/Info : Advanced Audio Codec
Format profile : LC
Codec ID : A_AAC
Duration : 1 h 50 min
Bit rate : 224 kb/s
Channel(s) : 2 channels
Channel positions : Front: L R
Sampling rate : 48.0 kHz
Frame rate : 46.875 FPS (1024 spf)
Compression mode : Lossy
Delay relative to video : -109 ms
Stream size : 177 MiB (4%)
Title : AAC English 2.0
Language : English
Default : No
Forced : No



หมายเหตุ ทุกเว็บโหลดแทนกันได้ แต่ต้องเปลี่ยนชื่อให้เรียงกันด้วย

Cloud2free

สำหรับสมาชิก VIP เท่านั้น!

[restrict …]

|——————————————————————|

|——————————————————————|

[/restrict]

%d bloggers like this: