Home > Mini-HD > [MINI-HD 1080P] Midway (2019) อเมริกาถล่มญี่ปุ่น [พากย์:Eng DD 2.0] [SOUNDTRACK บรรยายไทย] [MKV]

[MINI-HD 1080P] Midway (2019) อเมริกาถล่มญี่ปุ่น [พากย์:Eng DD 2.0] [SOUNDTRACK บรรยายไทย] [MKV]

Midway (2019) อเมริกาถล่มญี่ปุ่น

Midway.2019.V2.1080p.HDRip.X264.DD.2.0[Load2up.com].mkv
Format : Matroska
Format version : Version 4
File size : 4.07 GiB
Duration : 2 h 16 min
Overall bit rate : 4 283 kb/s
Movie name : EVO
Encoded date : UTC 2020-01-23 07:37:13
Writing application : mkvmerge v42.0.0 (‘Overtime’) 64-bit
Writing library : libebml v1.3.10 + libmatroska v1.5.2

Video
ID : 2
Format : AVC
Format/Info : Advanced Video Codec
Format profile : [email protected]
Format settings : CABAC / 4 Ref Frames
Format settings, CABAC : Yes
Format settings, ReFrames : 4 frames
Codec ID : V_MPEG4/ISO/AVC
Duration : 2 h 16 min
Bit rate : 3 885 kb/s
Width : 1 920 pixels
Height : 856 pixels
Display aspect ratio : 2.25:1
Frame rate mode : Constant
Frame rate : 24.000 FPS
Color space : YUV
Chroma subsampling : 4:2:0
Bit depth : 8 bits
Scan type : Progressive
Bits/(Pixel*Frame) : 0.098
Stream size : 3.69 GiB (91%)
Default : Yes
Forced : No
Color range : Limited
Color primaries : BT.709
Transfer characteristics : BT.709
Matrix coefficients : BT.709

Audio
ID : 1
Format : AC-3
Format/Info : Audio Coding 3
Commercial name : Dolby Digital
Codec ID : A_AC3
Duration : 2 h 16 min
Bit rate mode : Constant
Bit rate : 384 kb/s
Channel(s) : 2 channels
Channel layout : L R
Sampling rate : 48.0 kHz
Frame rate : 31.250 FPS (1536 SPF)
Bit depth : 16 bits
Compression mode : Lossy
Delay relative to video : 6 ms
Stream size : 374 MiB (9%)
Language : English
Service kind : Complete Main
Default : Yes
Forced : No

Text #1
ID : 3
Format : VobSub
Muxing mode : zlib
Codec ID : S_VOBSUB
Codec ID/Info : Picture based subtitle format used on DVDs
Duration : 2 h 6 min
Bit rate : 8 306 b/s
Count of elements : 1595
Stream size : 7.53 MiB (0%)
Language : Thai
Default : Yes
Forced : No

Text #2
ID : 4
Format : PGS
Muxing mode : zlib
Codec ID : S_HDMV/PGS
Codec ID/Info : Picture based subtitle format used on BDs/HD-DVDs
Duration : 2 h 6 min
Bit rate : 33.5 kb/s
Count of elements : 3190
Stream size : 30.4 MiB (1%)
Language : Thai
Default : No
Forced : No



หมายเหตุ ทุกเว็บโหลดแทนกันได้ แต่ต้องเปลี่ยนชื่อให้เรียงกันด้วย


สำหรับสมาชิก VIP เท่านั้น!

[restrict …]

|——————————————————————|

|——————————————————————|

[/restrict]

%d bloggers like this: