Home > Mini-HD > [MINI-HD 1080P] Mary Poppins Returns (2018) แมรี่ ป๊อบปิ้นส์ กลับมาแล้ว [เสียงอังกฤษ DTS 5.1] [บรรยายไทย + อังกฤษ] [Soundtrack บรรยายไทย] [MKV]

[MINI-HD 1080P] Mary Poppins Returns (2018) แมรี่ ป๊อบปิ้นส์ กลับมาแล้ว [เสียงอังกฤษ DTS 5.1] [บรรยายไทย + อังกฤษ] [Soundtrack บรรยายไทย] [MKV]

[MINI-HD 1080P] Mary Poppins Returns (2018) แมรี่ ป๊อบปิ้นส์ กลับมาแล้ว

Mary.Poppins.Returns.2018.1080p.Bluray.DTS.x264[Load2up,com].mkv
Format : Matroska
Format version : Version 4
File size : 3.77 GiB
Duration : 2 h 10 min
Overall bit rate : 4 139 kb/s
Movie name : Mary Poppins Returns 2018 1080p Bluray 10bit H264 DTS
Encoded date : UTC 2019-04-18 01:50:55
Writing application : mkvmerge v33.1.0 (‘Primrose’) 64-bit
Writing library : libebml v1.3.7 + libmatroska v1.5.0
Cover : Yes
Attachments : small_cover.jpg / small_cover_land.jpg / cover.jpg / cover_land.jpg

Video
ID : 1
Format : AVC
Format/Info : Advanced Video Codec
Format profile : High [email protected]
Format settings : CABAC / 4 Ref Frames
Format settings, CABAC : Yes
Format settings, ReFrames : 4 frames
Codec ID : V_MPEG4/ISO/AVC
Duration : 2 h 10 min
Bit rate : 2 643 kb/s
Width : 1 920 pixels
Height : 1 080 pixels
Display aspect ratio : 16:9
Frame rate mode : Constant
Frame rate : 23.976 (24000/1001) FPS
Color space : YUV
Chroma subsampling : 4:2:0
Bit depth : 10 bits
Scan type : Progressive
Bits/(Pixel*Frame) : 0.053
Stream size : 2.41 GiB (64%)
Writing library : x264 core 157 r2935 545de2f
Default : Yes
Forced : No
Color range : Limited
Color primaries : BT.709
Transfer characteristics : BT.709
Matrix coefficients : BT.709

Audio #1
ID : 2
Format : DTS
Format/Info : Digital Theater Systems
Codec ID : A_DTS
Duration : 2 h 10 min
Bit rate mode : Constant
Bit rate : 755 kb/s
Channel(s) : 6 channels
Channel layout : C L R Ls Rs LFE
Sampling rate : 48.0 kHz
Frame rate : 93.750 FPS (512 SPF)
Bit depth : 24 bits
Compression mode : Lossy
Stream size : 704 MiB (18%)
Title : Surround
Language : English
Default : Yes
Forced : No

Audio #2
ID : 3
Format : AC-3
Format/Info : Audio Coding 3
Commercial name : Dolby Digital
Codec ID : A_AC3
Duration : 2 h 10 min
Bit rate mode : Constant
Bit rate : 640 kb/s
Channel(s) : 6 channels
Channel layout : L R C LFE Ls Rs
Sampling rate : 48.0 kHz
Frame rate : 31.250 FPS (1536 SPF)
Bit depth : 16 bits
Compression mode : Lossy
Delay relative to video : 32 ms
Stream size : 597 MiB (15%)
Title : 5.1
Language : English
Service kind : Complete Main
Default : No
Forced : No

Text #1
ID : 4
Format : PGS
Muxing mode : zlib
Codec ID : S_HDMV/PGS
Codec ID/Info : Picture based subtitle format used on BDs/HD-DVDs
Duration : 2 h 2 min
Bit rate : 45.5 kb/s
Count of elements : 3862
Stream size : 39.7 MiB (1%)
Title : Tahoma
Language : Thai
Default : Yes
Forced : No

Text #2
ID : 5
Format : PGS
Muxing mode : zlib
Codec ID : S_HDMV/PGS
Codec ID/Info : Picture based subtitle format used on BDs/HD-DVDs
Duration : 2 h 2 min
Bit rate : 47.3 kb/s
Count of elements : 3862
Stream size : 41.3 MiB (1%)
Title : DilleniaUPC
Language : Thai
Default : No
Forced : No

Text #3
ID : 6
Format : PGS
Muxing mode : zlib
Codec ID : S_HDMV/PGS
Codec ID/Info : Picture based subtitle format used on BDs/HD-DVDs
Duration : 2 h 2 min
Bit rate : 51.6 kb/s
Count of elements : 3862
Stream size : 45.0 MiB (1%)
Title : AngsanaUPC
Language : Thai
Default : No
Forced : No

Text #4
ID : 7
Format : UTF-8
Codec ID : S_TEXT/UTF8
Codec ID/Info : UTF-8 Plain Text
Duration : 2 h 10 min
Bit rate : 146 b/s
Count of elements : 1934
Stream size : 140 KiB (0%)
Title : Thai-SRT
Language : Thai
Default : No
Forced : No

Text #5
ID : 8
Format : VobSub
Muxing mode : zlib
Codec ID : S_VOBSUB
Codec ID/Info : Picture based subtitle format used on DVDs
Duration : 2 h 2 min
Bit rate : 11.6 kb/s
Count of elements : 1931
Stream size : 10.1 MiB (0%)
Title : AngsanaUPC
Language : Thai
Default : No
Forced : No

Text #6
ID : 9
Format : VobSub
Muxing mode : zlib
Codec ID : S_VOBSUB
Codec ID/Info : Picture based subtitle format used on DVDs
Duration : 2 h 2 min
Bit rate : 11.2 kb/s
Count of elements : 1931
Stream size : 9.79 MiB (0%)
Title : DilleniaUPC
Language : Thai
Default : No
Forced : No

Text #7
ID : 10
Format : VobSub
Muxing mode : zlib
Codec ID : S_VOBSUB
Codec ID/Info : Picture based subtitle format used on DVDs
Duration : 2 h 2 min
Bit rate : 10.2 kb/s
Count of elements : 1931
Stream size : 8.93 MiB (0%)
Title : Tahoma
Language : Thai
Default : No
Forced : No

Text #8
ID : 11
Format : PGS
Muxing mode : zlib
Codec ID : S_HDMV/PGS
Codec ID/Info : Picture based subtitle format used on BDs/HD-DVDs
Duration : 2 h 5 min
Bit rate : 53.1 kb/s
Count of elements : 4918
Stream size : 47.6 MiB (1%)
Title : English-PGS
Language : English
Default : No
Forced : No



หมายเหตุ ทุกเว็บโหลดแทนกันได้ แต่ต้องเปลี่ยนชื่อให้เรียงกันด้วย

สำหรับสมาชิก VIP เท่านั้น!

[restrict …]

|——————————————————————|

|——————————————————————|

[/restrict]