Home > Mini-HD > [MINI-HD 1080P] Ip Man 4: The Finale (2019) ยิปมัน 4 [พากย์ไทยโรง 2.0 + เสียงจีน 2.0] [MKV]

[MINI-HD 1080P] Ip Man 4: The Finale (2019) ยิปมัน 4 [พากย์ไทยโรง 2.0 + เสียงจีน 2.0] [MKV]

พากย์ไทยโรง 2.0 + เสียงจีน 2.0

Ip.Man.4.2019.1080p.WEB-DL.THR.2.0.H264[Load2up.com].mkv
Format : Matroska
Format version : Version 4
File size : 3.42 GiB
Duration : 1 h 46 min
Overall bit rate : 4 571 kb/s
Movie name : Ip.Man.4.2019.1080p.WEB-DL.THR.2.0.H264
Encoded date : UTC 2020-02-10 18:36:02
Writing application : mkvmerge v40.0.0 (‘Old Town Road + Pony’) 64-bit
Writing library : libebml v1.3.9 + libmatroska v1.5.2

Video
ID : 1
Format : AVC
Format/Info : Advanced Video Codec
Format profile : [email protected]
Format settings : CABAC / 4 Ref Frames
Format settings, CABAC : Yes
Format settings, ReFrames : 4 frames
Codec ID : V_MPEG4/ISO/AVC
Duration : 1 h 46 min
Bit rate : 3 794 kb/s
Width : 1 920 pixels
Height : 864 pixels
Display aspect ratio : 2.222
Frame rate mode : Constant
Frame rate : 25.000 FPS
Color space : YUV
Chroma subsampling : 4:2:0
Bit depth : 8 bits
Scan type : Progressive
Bits/(Pixel*Frame) : 0.091
Stream size : 2.84 GiB (83%)
Title : Ip.Man.4.2019.1080p.WEB-DL.THR.2.0.H264
Writing library : x264 core 142 r2479 dd79a61
Language : English
Default : Yes
Forced : No
Color range : Limited
Color primaries : BT.709
Transfer characteristics : BT.709
Matrix coefficients : BT.709

Audio #1
ID : 2
Format : AC-3
Format/Info : Audio Coding 3
Commercial name : Dolby Digital
Codec ID : A_AC3
Duration : 1 h 46 min
Bit rate mode : Constant
Bit rate : 384 kb/s
Channel(s) : 2 channels
Channel layout : L R
Sampling rate : 48.0 kHz
Frame rate : 31.250 FPS (1536 SPF)
Bit depth : 16 bits
Compression mode : Lossy
Delay relative to video : -80 ms
Stream size : 294 MiB (8%)
Title : ThaiRong 2.0 @ 384 kb/s
Language : Thai
Service kind : Complete Main
Default : Yes
Forced : Yes

Audio #2
ID : 3
Format : AC-3
Format/Info : Audio Coding 3
Commercial name : Dolby Digital
Codec ID : A_AC3
Duration : 1 h 46 min
Bit rate mode : Constant
Bit rate : 384 kb/s
Channel(s) : 2 channels
Channel layout : L R
Sampling rate : 48.0 kHz
Frame rate : 31.250 FPS (1536 SPF)
Bit depth : 16 bits
Compression mode : Lossy
Delay relative to video : -5 ms
Stream size : 294 MiB (8%)
Title : Chinese 2.0 @ 384 kb/s
Language : Chinese
Service kind : Complete Main
Default : No
Forced : No



หมายเหตุ ทุกเว็บโหลดแทนกันได้ แต่ต้องเปลี่ยนชื่อให้เรียงกันด้วย

สำหรับสมาชิก VIP เท่านั้น!

[restrict …]

|——————————————————————|

|——————————————————————|

[/restrict]

%d bloggers like this: