Home > Mini-HD > [MINI-HD 1080P] IO (2019) ผู้ยืนหยัดคนสุดท้าย [เสียงอังกฤษ 5.1] [บรรยายไทย + อังกฤษ] [Soundtrack บรรยายไทย] [MKV]

[MINI-HD 1080P] IO (2019) ผู้ยืนหยัดคนสุดท้าย [เสียงอังกฤษ 5.1] [บรรยายไทย + อังกฤษ] [Soundtrack บรรยายไทย] [MKV]

[MINI-HD 1080P] IO (2019) ผู้ยืนหยัดคนสุดท้าย

IO 2019 1080p NF WEB-DL DDP5.1 x264[Load2up.com].mkv
Format : Matroska
Format version : Version 4 / Version 2
File size : 5.02 GiB
Duration : 1 h 36 min
Overall bit rate mode : Variable
Overall bit rate : 7 488 kb/s
Encoded date : UTC 2019-01-18 21:29:55
Writing application : mkvmerge v8.2.0 (‘World of Adventure’) 64bit
Writing library : libebml v1.3.1 + libmatroska v1.4.2
Cover : Yes
Attachments : small_cover.jpg / small_cover_land.jpg / cover.jpg / cover_land.jpg

Video
ID : 1
Format : AVC
Format/Info : Advanced Video Codec
Format profile : [email protected]
Format settings, CABAC : Yes
Format settings, RefFrames : 4 frames
Codec ID : V_MPEG4/ISO/AVC
Duration : 1 h 36 min
Bit rate mode : Variable
Bit rate : 6 841 kb/s
Maximum bit rate : 20.0 Mb/s
Width : 1 920 pixels
Height : 1 080 pixels
Display aspect ratio : 16:9
Frame rate mode : Constant
Frame rate : 24.000 FPS
Color space : YUV
Chroma subsampling : 4:2:0
Bit depth : 8 bits
Scan type : Progressive
Bits/(Pixel*Frame) : 0.137
Stream size : 4.59 GiB (91%)
Writing library : x264 core 148 r2715 7e75228
Default : Yes
Forced : No

Audio
ID : 2
Format : E-AC-3
Format/Info : Enhanced Audio Coding 3
Format settings, Endianness : Big
Codec ID : A_EAC3
Duration : 1 h 36 min
Bit rate mode : Constant
Bit rate : 640 kb/s
Channel(s) : 6 channels
Channel positions : Front: L C R, Side: L R, LFE
Sampling rate : 48.0 kHz
Frame rate : 187.500 FPS (256 SPF)
Compression mode : Lossy
Stream size : 440 MiB (9%)
Language : English
Service kind : Complete Main
Default : Yes
Forced : No

Text #1
ID : 3
Format : UTF-8
Codec ID : S_TEXT/UTF8
Codec ID/Info : UTF-8 Plain Text
Duration : 1 h 28 min
Bit rate : 34 b/s
Count of elements : 759
Stream size : 22.3 KiB (0%)
Title : English
Language : English
Default : No
Forced : No

Text #2
ID : 4
Format : PGS
Muxing mode : zlib
Codec ID : S_HDMV/PGS
Codec ID/Info : Picture based subtitle format used on BDs/HD-DVDs
Duration : 1 h 34 min
Bit rate : 6 000 b/s
Count of elements : 1434
Stream size : 4.07 MiB (0%)
Title : Thai
Language : Thai
Default : Yes
Forced : No



หมายเหตุ ทุกเว็บโหลดแทนกันได้ แต่ต้องเปลี่ยนชื่อให้เรียงกันด้วย

สำหรับสมาชิก VIP เท่านั้น!

[restrict …]

|——————————————————————|

|——————————————————————|

[/restrict]