Home > Master > [MINI-HD 1080P HQ] Bridget Jones’s Baby (2016) บริดเจ็ท โจนส์ เบบี้ [พากย์ไทย5.1+อังกฤษDTS] [บรรยายไทย+อังกฤษ] [MASTER] [MKV] [ONE2UP] [CORNFILE]

[MINI-HD 1080P HQ] Bridget Jones’s Baby (2016) บริดเจ็ท โจนส์ เบบี้ [พากย์ไทย5.1+อังกฤษDTS] [บรรยายไทย+อังกฤษ] [MASTER] [MKV] [ONE2UP] [CORNFILE]

[MINI-HD 1080P HQ] Bridget Jones’s Baby (2016) บริดเจ็ท โจนส์ เบบี้

Bridget Jones s Baby เรเน่ เซลเวเกอร์ และโคลิน เฟิร์ธ ควงคู่กลับมาอีกครั้งในภาพยนตร์โรแมนติคคอเมดี้ขวัญใจคนโสด Bridget Jones s Baby บริดเจ็ท โจนส์ เบบี้ พร้อมเสริมทีมนักแสดงด้วยแพทริค เด็มพ์ซีย์ และเอ็มม่า ธอมสัน โดยชารอน แม็กไกวร์ จาก Bridget Jones s Dairyกลับมารับหน้าที่ผู้กำกับภาพยนตร์แฟรนไชส์จากตัวละครที่สร้างขึ้นโดยเฮเลน ฟิลดิ้ง อีกครั้ง!!!

Bridget.Jones’s.Baby.2016.1080p.SuperHQ.DTS.x264[Load2up.com].mkv
Format : Matroska
Format version : Version 4 / Version 2
File size : 3.76 GiB
Duration : 2 h 2 min
Overall bit rate : 4 388 kb/s
Movie name : Bridget.Jones’s.Baby.2016.1080p.SuperHQ.DTS.x264
Encoded date : UTC 2017-02-09 09:03:36
Writing application : mkvmerge v9.8.0 (‘Kuglblids’) 32bit
Writing library : libebml v1.3.4 + libmatroska v1.4.5

Video
ID : 1
Format : AVC
Format/Info : Advanced Video Codec
Format profile : [email protected]
Format settings, CABAC : Yes
Format settings, ReFrames : 4 frames
Codec ID : V_MPEG4/ISO/AVC
Duration : 2 h 2 min
Bit rate : 3 233 kb/s
Width : 1 920 pixels
Height : 804 pixels
Display aspect ratio : 2.40:1
Frame rate mode : Constant
Frame rate : 23.976 (24000/1001) FPS
Color space : YUV
Chroma subsampling : 4:2:0
Bit depth : 8 bits
Scan type : Progressive
Bits/(Pixel*Frame) : 0.087
Stream size : 2.77 GiB (74%)
Title : Bridget.Jones’s.Baby.2016.1080p.SuperHQ.DTS.x264
Writing library : x264 core 130 r2273 b3065e6
Language : English
Default : Yes
Forced : No
Color range : Limited
Color primaries : BT.709
Transfer characteristics : BT.709
Matrix coefficients : BT.709

Audio #1
ID : 2
Format : AC-3
Format/Info : Audio Coding 3
Mode extension : CM (complete main)
Format settings, Endianness : Big
Codec ID : A_AC3
Duration : 2 h 2 min
Bit rate mode : Constant
Bit rate : 384 kb/s
Channel(s) : 6 channels
Channel positions : Front: L C R, Side: L R, LFE
Sampling rate : 48.0 kHz
Frame rate : 31.250 FPS (1536 spf)
Bit depth : 16 bits
Compression mode : Lossy
Delay relative to video : 24 ms
Stream size : 337 MiB (9%)
Title : Thai Master 5.1
Language : Thai
Default : Yes
Forced : Yes

Audio #2
ID : 3
Format : DTS
Format/Info : Digital Theater Systems
Mode : 16
Format settings, Endianness : Big
Codec ID : A_DTS
Duration : 2 h 2 min
Bit rate mode : Constant
Bit rate : 755 kb/s
Channel(s) : 6 channels
Channel positions : Front: L C R, Side: L R, LFE
Sampling rate : 48.0 kHz
Frame rate : 93.750 FPS (512 spf)
Bit depth : 24 bits
Compression mode : Lossy
Stream size : 662 MiB (17%)
Title : English DTS
Language : English
Default : No
Forced : No

Text #1
ID : 4
Format : VobSub
Muxing mode : zlib
Codec ID : S_VOBSUB
Codec ID/Info : Picture based subtitle format used on DVDs
Duration : 1 h 54 min
Bit rate : 1 925 b/s
Count of elements : 1950
Stream size : 1.58 MiB (0%)
Title : Thai
Language : Thai
Default : Yes
Forced : Yes

Text #2
ID : 5
Format : VobSub
Muxing mode : zlib
Codec ID : S_VOBSUB
Codec ID/Info : Picture based subtitle format used on DVDs
Duration : 1 h 54 min
Bit rate : 2 249 b/s
Count of elements : 1950
Stream size : 1.85 MiB (0%)
Title : Thai Out
Language : Thai
Default : No
Forced : No

Text #3
ID : 6
Format : VobSub
Muxing mode : zlib
Codec ID : S_VOBSUB
Codec ID/Info : Picture based subtitle format used on DVDs
Duration : 1 h 54 min
Bit rate : 2 533 b/s
Count of elements : 1950
Stream size : 2.08 MiB (0%)
Title : Thai BIG
Language : Thai
Default : No
Forced : No

Text #4
ID : 7
Format : VobSub
Muxing mode : zlib
Codec ID : S_VOBSUB
Codec ID/Info : Picture based subtitle format used on DVDs
Duration : 1 h 54 min
Bit rate : 8 029 b/s
Count of elements : 2135
Stream size : 6.56 MiB (0%)
Title : English By
Language : English
Default : No
Forced : No



หมายเหตุ ทุกเว็บโหลดแทนกันได้ แต่ต้องเปลี่ยนชื่อให้เรียงกันด้วย

สำหรับสมาชิก VIP เท่านั้น!

[restrict …]

|——————————————————————|

|——————————————————————|

[/restrict]