Home > Master > [MINI-HD 1080P] The Hobbit 3 The Battle of The Five Armies (2014) เดอะ ฮอบบิท 3 สงคราม 5 ทัพ [พากย์ไทย 5.1 + อังกฤษ DTS] [ซับไทย + อังกฤษ] [MASTER] [MKV] [ONE2UP]

[MINI-HD 1080P] The Hobbit 3 The Battle of The Five Armies (2014) เดอะ ฮอบบิท 3 สงคราม 5 ทัพ [พากย์ไทย 5.1 + อังกฤษ DTS] [ซับไทย + อังกฤษ] [MASTER] [MKV] [ONE2UP]

[MINI-HD 1080P] The Hobbit 3 The Battle of The Five Armies (2014) เดอะ ฮอบบิท 3 สงคราม 5 ทัพ

“The Hobbit: The Battle of the Five Armies”
บทสรุปไตรภาคการผจญภัยของ บิลโบ แบ๊กกินส์ (มาร์ติน ฟรีแมน), ธอริน โอเคนชีลด์ (ริชาร์ด อาร์มิเทจ) และคณะคนแคระที่ทวงคืนบ้านเกิดของตนจาก มังกรสมอว์ก (พากย์เสียงโดย เบเนดิกต์ คัมเบอร์แบทช์) และได้ปลุกพลังอันชั่วร้ายขึ้นมาโดยไม่ตั้งใจ สมอว์กโกรธแค้นและได้พ่นไฟทำร้ายมนุษย์ทั้งหญิงชายแล ะเด็กๆ ที่ไม่มีทางสู้ในเมืองทะเลสาบด้วยความคั่งแค้น ด้วยความต้องการที่จะไปทวงคืนทรัพย์สมบัติ ธอรินยอมเสียสละมิตรภาพและเกียรติยศเพื่อใส่ร้ายว่าเ ป็นแผนชั่วของบิลโบ เพื่อทำให้ฮอบบิทเดินหน้าต่อไป แต่กลับมีอันตรายที่โหดร้ายกว่ารออยู่เบื้องหน้าซึ่ง ไม่มีใครมองเห็นได้
นอกจาก พ่อมดแกนดัล์ฟ (เอียน แมคเคลเลน) นั่นคือศัตรูผู้ยิ่งใหญ่อย่าง ซอรอน ได้เคลื่อนทัพไปพร้อมกับกองทัพออร์คเพื่อแอบซุ่มโจมตีพวกเขาที่หุบเขาเดียวดาย การต่อสู้ของพวกเขาทวีความรุนแรงมากขึ้นเรื่อยๆ คณะคนแคระ พวกเอลฟ์ และมนุษย์ต้องเลือกว่าจะร่วมมือกันหรือยอมถูกทำร้าย เพื่อให้อนาคตของมิดเดิ้ลเอิร์ธตั้งอยู่บนความสมดุล

MINI_Super-HQ_The.Hobbit.The.Battle.of.the.Five.Armies.1080p.BrRip.DTS.x264[Load2up.com].mkv
Format : Matroska
Format version : Version 4 / Version 2
File size : 4.25 GiB
Duration : 2 h 24 min
Overall bit rate : 4 208 kb/s
Movie name : {MINI Super-HQ}The.Hobbit.The.Battle.of.the.Five.Armies.1080p.BrRip.DTS.x264
Encoded date : UTC 2010-02-22 21:41:31
Writing application : mkvmerge v5.9.0 (‘On The Loose’) built on Dec 9 2012 15:37:01
Writing library : libebml v1.3.0 + libmatroska v1.4.0

Video
ID : 1
Format : AVC
Format/Info : Advanced Video Codec
Format profile : [email protected]
Format settings, CABAC : Yes
Format settings, ReFrames : 5 frames
Codec ID : V_MPEG4/ISO/AVC
Duration : 2 h 24 min
Bit rate : 2 939 kb/s
Width : 1 920 pixels
Height : 800 pixels
Display aspect ratio : 2.40:1
Frame rate mode : Constant
Frame rate : 23.976 (24000/1001) FPS
Color space : YUV
Chroma subsampling : 4:2:0
Bit depth : 8 bits
Scan type : Progressive
Bits/(Pixel*Frame) : 0.080
Stream size : 2.95 GiB (69%)
Title : {MINI Super-HQ}The.Hobbit.The.Battle.of.the.Five.Armies.1080p.BrRip.DTS.x264
Writing library : x264 core 130 r2273 b3065e6
Language : English
Default : Yes
Forced : No
Color range : Limited
Color primaries : BT.709
Transfer characteristics : BT.709
Matrix coefficients : BT.709

Audio #1
ID : 2
Format : AC-3
Format/Info : Audio Coding 3
Format settings, Endianness : Big
Codec ID : A_AC3
Duration : 2 h 24 min
Bit rate mode : Constant
Bit rate : 448 kb/s
Channel(s) : 6 channels
Channel positions : Front: L C R, Side: L R, LFE
Sampling rate : 48.0 kHz
Frame rate : 31.250 FPS (1536 spf)
Bit depth : 16 bits
Compression mode : Lossy
Stream size : 463 MiB (11%)
Title : Thai BluRay Master
Language : Thai
Service kind : Complete Main
Default : Yes
Forced : Yes

Audio #2
ID : 3
Format : DTS
Format/Info : Digital Theater Systems
Mode : 16
Format settings, Endianness : Big
Codec ID : A_DTS
Duration : 2 h 24 min
Bit rate mode : Constant
Bit rate : 755 kb/s
Channel(s) : 6 channels
Channel positions : Front: L C R, Side: L R, LFE
Sampling rate : 48.0 kHz
Frame rate : 93.750 FPS (512 spf)
Bit depth : 24 bits
Compression mode : Lossy
Stream size : 780 MiB (18%)
Title : English DTS
Language : English
Default : No
Forced : No

Text #1
ID : 4
Format : VobSub
Codec ID : S_VOBSUB
Codec ID/Info : Picture based subtitle format used on DVDs
Title : Thai 480p
Language : Thai
Default : No
Forced : No

Text #2
ID : 5
Format : VobSub
Codec ID : S_VOBSUB
Codec ID/Info : Picture based subtitle format used on DVDs
Title : Thai 720
Language : Thai
Default : No
Forced : No

Text #3
ID : 6
Format : VobSub
Codec ID : S_VOBSUB
Codec ID/Info : Picture based subtitle format used on DVDs
Title : Thai 1080p BluRay Master
Language : Thai
Default : No
Forced : No

Text #4
ID : 7
Format : VobSub
Codec ID : S_VOBSUB
Codec ID/Info : Picture based subtitle format used on DVDs
Title : Thai 1080p For Foreign Part
Language : Thai
Default : Yes
Forced : Yes

Text #5
ID : 8
Format : VobSub
Codec ID : S_VOBSUB
Codec ID/Info : Picture based subtitle format used on DVDs
Title : Thai 1080p Out
Language : Thai
Default : No
Forced : No

Text #6
ID : 9
Format : VobSub
Codec ID : S_VOBSUB
Codec ID/Info : Picture based subtitle format used on DVDs
Title : Thai 1080p BIG
Language : Thai
Default : No
Forced : No

Text #7
ID : 10
Format : VobSub
Codec ID : S_VOBSUB
Codec ID/Info : Picture based subtitle format used on DVDs
Title : Thai 1080p Out [BIG] Language : Thai
Default : No
Forced : No

Text #8
ID : 11
Format : PGS
Codec ID : S_HDMV/PGS
Codec ID/Info : Picture based subtitle format used on BDs/HD-DVDs
Title : Thai PGS BluRay Master
Language : Thai
Default : No
Forced : No

Text #9
ID : 12
Format : PGS
Codec ID : S_HDMV/PGS
Codec ID/Info : Picture based subtitle format used on BDs/HD-DVDs
Title : Thai PGS BluRay Master [Out] Language : Thai
Default : No
Forced : No

Text #10
ID : 13
Format : PGS
Codec ID : S_HDMV/PGS
Codec ID/Info : Picture based subtitle format used on BDs/HD-DVDs
Title : Thai PGS For Foreign Part
Language : Thai
Default : No
Forced : No

Text #11
ID : 14
Format : VobSub
Codec ID : S_VOBSUB
Codec ID/Info : Picture based subtitle format used on DVDs
Title : English
Language : English
Default : No
Forced : No



หมายเหตุ ทุกเว็บโหลดแทนกันได้ แต่ต้องเปลี่ยนชื่อให้เรียงกันด้วย

Cloud2free

สำหรับสมาชิก VIP เท่านั้น!

[restrict …]

|——————————————————————|

|——————————————————————|

[/restrict]

%d bloggers like this: