Home > Mini-HD > [MINI-HD 1080P] First Kill (2017) เฟิร์ส คิล [พากย์ไทยมาสเตอร์ 2.0+เสียงอังกฤษ 5.1] [บรรยายอังกฤษ] [MKV] [ONE2UP]

[MINI-HD 1080P] First Kill (2017) เฟิร์ส คิล [พากย์ไทยมาสเตอร์ 2.0+เสียงอังกฤษ 5.1] [บรรยายอังกฤษ] [MKV] [ONE2UP]

[MINI-HD 1080P] First Kill (2017) เฟิร์ส คิล

First.Kill.2017.1080p.BluRay.x264.AC3.THM2.0[Load2up,com].mkv
Format : Matroska
Format version : Version 4
File size : 2.37 GiB
Duration : 1 h 41 min
Overall bit rate : 3 335 kb/s
Encoded date : UTC 2019-04-18 14:16:55
Writing application : mkvmerge v25.0.0 (‘Prog Noir’) 64-bit
Writing library : libebml v1.3.6 + libmatroska v1.4.9

Video
ID : 1
Format : AVC
Format/Info : Advanced Video Codec
Format profile : [email protected]
Format settings : CABAC / 4 Ref Frames
Format settings, CABAC : Yes
Format settings, ReFrames : 4 frames
Codec ID : V_MPEG4/ISO/AVC
Duration : 1 h 41 min
Bit rate : 2 500 kb/s
Width : 1 920 pixels
Height : 800 pixels
Display aspect ratio : 2.40:1
Frame rate mode : Constant
Frame rate : 23.976 (24000/1001) FPS
Original frame rate : 23.976 (23976/1000) FPS
Color space : YUV
Chroma subsampling : 4:2:0
Bit depth : 8 bits
Scan type : Progressive
Bits/(Pixel*Frame) : 0.068
Stream size : 1.77 GiB (75%)
Title : First.Kill.2017.1080p.BluRay.x264.AC3.THM2.0
Writing library : x264 core 152 r2851M ba24899
Default : Yes
Forced : No

Audio #1
ID : 2
Format : AC-3
Format/Info : Audio Coding 3
Commercial name : Dolby Digital
Codec ID : A_AC3
Duration : 1 h 41 min
Bit rate mode : Constant
Bit rate : 192 kb/s
Channel(s) : 2 channels
Channel layout : L R
Sampling rate : 48.0 kHz
Frame rate : 31.250 FPS (1536 SPF)
Bit depth : 16 bits
Compression mode : Lossy
Stream size : 140 MiB (6%)
Title : Thai Stereo 2.0 @192 Kbps
Language : Thai
Service kind : Complete Main
Default : Yes
Forced : No

Audio #2
ID : 3
Format : AC-3
Format/Info : Audio Coding 3
Commercial name : Dolby Digital
Codec ID : A_AC3
Duration : 1 h 41 min
Bit rate mode : Constant
Bit rate : 640 kb/s
Channel(s) : 6 channels
Channel layout : L R C LFE Ls Rs
Sampling rate : 48.0 kHz
Frame rate : 31.250 FPS (1536 SPF)
Bit depth : 16 bits
Compression mode : Lossy
Stream size : 466 MiB (19%)
Title : English 5.1 @640 Kbps
Language : English
Service kind : Complete Main
Default : No
Forced : No

Text
ID : 4
Format : VobSub
Muxing mode : zlib
Codec ID : S_VOBSUB
Codec ID/Info : Picture based subtitle format used on DVDs
Duration : 1 h 32 min
Bit rate : 7 549 b/s
Count of elements : 988
Stream size : 5.00 MiB (0%)
Title : English
Language : English
Default : Yes
Forced : No



หมายเหตุ ทุกเว็บโหลดแทนกันได้ แต่ต้องเปลี่ยนชื่อให้เรียงกันด้วย

สำหรับสมาชิก VIP เท่านั้น!

[restrict …]

|——————————————————————|

|——————————————————————|

[/restrict]