Home > Mini-HD > [MINI-HD 1080P] EXTRAORDINARY MISSION (2017) ภารกิจพิเศษ [Sound:Chi AC3 5.1/Tha AC3 2.0:Master][SUB:Eng.PGS] [MKV]

[MINI-HD 1080P] EXTRAORDINARY MISSION (2017) ภารกิจพิเศษ [Sound:Chi AC3 5.1/Tha AC3 2.0:Master][SUB:Eng.PGS] [MKV]

EXTRAORDINARY MISSION (2017) ภารกิจพิเศษ

Extraordinary.Mission.2017.1080p.BluRay.x264.Load2up.com.mkv
Format : Matroska
Format version : Version 4
File size : 3.57 GiB
Duration : 2 h 1 min
Overall bit rate : 4 210 kb/s
Movie name : Extraordinary.Mission.2017.1080p.BluRay.x264
Encoded date : UTC 2020-04-28 21:56:07
Writing application : mkvmerge v45.0.0 (‘Heaven in Pennies’) 64-bit
Writing library : libebml v1.3.10 + libmatroska v1.5.2
Cover : Yes
Attachments : cover.jpg

Video
ID : 1
Format : AVC
Format/Info : Advanced Video Codec
Format profile : [email protected]
Format settings : CABAC / 1 Ref Frames
Format settings, CABAC : Yes
Format settings, ReFrames : 1 frame
Format settings, GOP : M=1, N=25
Codec ID : V_MPEG4/ISO/AVC
Duration : 2 h 1 min
Bit rate mode : Constant
Bit rate : 3 500 kb/s
Width : 1 920 pixels
Height : 800 pixels
Display aspect ratio : 2.40:1
Frame rate mode : Constant
Frame rate : 29.970 (30000/1001) FPS
Color space : YUV
Chroma subsampling : 4:2:0
Bit depth : 8 bits
Scan type : Progressive
Bits/(Pixel*Frame) : 0.076
Stream size : 2.97 GiB (83%)
Title : Extraordinary.Mission.2017.1080p.BluRay.x264
Language : Chinese
Default : Yes
Forced : No

Audio #1
ID : 2
Format : AC-3
Format/Info : Audio Coding 3
Commercial name : Dolby Digital
Codec ID : A_AC3
Duration : 2 h 1 min
Bit rate mode : Constant
Bit rate : 256 kb/s
Channel(s) : 2 channels
Channel layout : L R
Sampling rate : 44.1 kHz
Frame rate : 28.711 FPS (1536 SPF)
Bit depth : 16 bits
Compression mode : Lossy
Stream size : 223 MiB (6%)
Title : 2.0 AC3 Th 256K 222M
Language : Thai
Service kind : Complete Main
Default : Yes
Forced : No

Audio #2
ID : 3
Format : AC-3
Format/Info : Audio Coding 3
Commercial name : Dolby Digital
Codec ID : A_AC3
Duration : 2 h 1 min
Bit rate mode : Constant
Bit rate : 448 kb/s
Channel(s) : 6 channels
Channel layout : L R C LFE Ls Rs
Sampling rate : 48.0 kHz
Frame rate : 31.250 FPS (1536 SPF)
Bit depth : 16 bits
Compression mode : Lossy
Stream size : 390 MiB (11%)
Title : 5.1 AC3 Chi 448K 389M
Service kind : Complete Main
Default : No
Forced : No

Text
ID : 4
Format : PGS
Muxing mode : zlib
Codec ID : S_HDMV/PGS
Codec ID/Info : Picture based subtitle format used on BDs/HD-DVDs
Duration : 1 h 54 min
Bit rate : 10.5 kb/s
Count of elements : 1798
Stream size : 8.61 MiB (0%)
Title : En.PGS.Blue.80-61-10
Language : English
Default : Yes
Forced : No



หมายเหตุ ทุกเว็บโหลดแทนกันได้ แต่ต้องเปลี่ยนชื่อให้เรียงกันด้วย


สำหรับสมาชิก VIP เท่านั้น!

[restrict …]

|——————————————————————|

|——————————————————————|

[/restrict]

%d bloggers like this: