Home > Master > [MINI-HD 1080P] Dolittle (2020) ด็อกเตอร์ ดูลิตเติ้ล [พากย์ไทยโรง 2.0 + เสียงอังกฤษ 2.0] [MKV]

[MINI-HD 1080P] Dolittle (2020) ด็อกเตอร์ ดูลิตเติ้ล [พากย์ไทยโรง 2.0 + เสียงอังกฤษ 2.0] [MKV]

Dolittle (2020) ด็อกเตอร์ ดูลิตเติ้ล

Dolittle.2020.1080p.HDRip.THR2.0.x264[Load2up.com].mkv
Format : Matroska
Format version : Version 4
File size : 3.85 GiB
Duration : 1 h 29 min
Overall bit rate : 6 146 kb/s
Movie name : Dolittle.2020.1080p.HDRip.THR2.0.x264
Encoded date : UTC 2020-02-09 02:04:54
Writing application : mkvmerge v40.0.0 (‘Old Town Road + Pony’) 64-bit
Writing library : libebml v1.3.9 + libmatroska v1.5.2

Video
ID : 1
Format : AVC
Format/Info : Advanced Video Codec
Format profile : [email protected]
Format settings : CABAC / 4 Ref Frames
Format settings, CABAC : Yes
Format settings, ReFrames : 4 frames
Codec ID : V_MPEG4/ISO/AVC
Duration : 1 h 29 min
Bit rate : 5 500 kb/s
Width : 1 920 pixels
Height : 1 040 pixels
Display aspect ratio : 1.85:1
Frame rate mode : Constant
Frame rate : 30.000 FPS
Color space : YUV
Chroma subsampling : 4:2:0
Bit depth : 8 bits
Scan type : Progressive
Bits/(Pixel*Frame) : 0.092
Stream size : 3.45 GiB (90%)
Title : Dolittle.2020.1080p.HDRip.THR2.0.x264
Writing library : x264 core 148 r2748 97eaef2
Language : English
Default : Yes
Forced : No

Audio #1
ID : 2
Format : AC-3
Format/Info : Audio Coding 3
Commercial name : Dolby Digital
Codec ID : A_AC3
Duration : 1 h 29 min
Bit rate mode : Constant
Bit rate : 384 kb/s
Channel(s) : 2 channels
Channel layout : L R
Sampling rate : 48.0 kHz
Frame rate : 31.250 FPS (1536 SPF)
Bit depth : 16 bits
Compression mode : Lossy
Delay relative to video : -31 ms
Stream size : 247 MiB (6%)
Title : ThaiRong 2.0 @ 384 kb/s
Language : Thai
Service kind : Complete Main
Default : Yes
Forced : Yes

Audio #2
ID : 3
Format : AAC LC
Format/Info : Advanced Audio Codec Low Complexity
Codec ID : A_AAC-2
Duration : 1 h 29 min
Bit rate : 256 kb/s
Channel(s) : 2 channels
Channel layout : L R
Sampling rate : 48.0 kHz
Frame rate : 46.875 FPS (1024 SPF)
Compression mode : Lossy
Delay relative to video : -31 ms
Stream size : 164 MiB (4%)
Title : English 2.0 @ 256 kb/s
Language : English
Default : No
Forced : No



หมายเหตุ ทุกเว็บโหลดแทนกันได้ แต่ต้องเปลี่ยนชื่อให้เรียงกันด้วย

สำหรับสมาชิก VIP เท่านั้น!

[restrict …]

|——————————————————————|

|——————————————————————|

[/restrict]

%d bloggers like this: