Home > Mini-HD > [MINI-HD 1080P] DETECTIVE DEE THE FOUR HEAVENLY KINGS (2018) ตี๋เหรินเจี๋ย ปริศนาพลิกฟ้า 4 จตุรเทพ [พากย์ไทย] [MKV]

[MINI-HD 1080P] DETECTIVE DEE THE FOUR HEAVENLY KINGS (2018) ตี๋เหรินเจี๋ย ปริศนาพลิกฟ้า 4 จตุรเทพ [พากย์ไทย] [MKV]

[MINI-HD 1080P] DETECTIVE DEE THE FOUR HEAVENLY KINGS (2018) ตี๋เหรินเจี๋ย ปริศนาพลิกฟ้า 4 จตุรเทพ

DETECTIVE DEE THE FOUR HEAVENLY KINGS (2018)[Load2up.com].mp4
Format : MPEG-4
Format profile : Base Media / Version 2
Codec ID : mp42 (isom/mp42)
File size : 3.97 GiB
Duration : 2 h 12 min
Overall bit rate mode : Variable
Overall bit rate : 4 308 kb/s
Encoded date : UTC 2018-11-05 16:47:43
Tagged date : UTC 2018-11-05 16:47:43
gsst : 0
gstd : 7924481

Video
ID : 1
Format : AVC
Format/Info : Advanced Video Codec
Format profile : [email protected]
Format settings, CABAC : Yes
Format settings, ReFrames : 1 frame
Format settings, GOP : M=1, N=48
Codec ID : avc1
Codec ID/Info : Advanced Video Coding
Duration : 2 h 12 min
Bit rate : 4 178 kb/s
Maximum bit rate : 14.5 Mb/s
Width : 1 920 pixels
Height : 1 036 pixels
Display aspect ratio : 1.85:1
Frame rate mode : Constant
Frame rate : 23.976 (24000/1001) FPS
Color space : YUV
Chroma subsampling : 4:2:0
Bit depth : 8 bits
Scan type : Progressive
Bits/(Pixel*Frame) : 0.088
Stream size : 3.85 GiB (97%)
Tagged date : UTC 2018-11-05 16:52:40
Color range : Limited
Color primaries : BT.709
Transfer characteristics : BT.709
Matrix coefficients : BT.709

Audio
ID : 2
Format : AAC
Format/Info : Advanced Audio Codec
Format profile : LC
Codec ID : 40
Duration : 2 h 12 min
Bit rate mode : Variable
Bit rate : 128 kb/s
Maximum bit rate : 136 kb/s
Channel(s) : 2 channels
Channel positions : Front: L R
Sampling rate : 44.1 kHz
Frame rate : 43.066 FPS (1024 spf)
Compression mode : Lossy
Stream size : 121 MiB (3%)
Title : IsoMedia File Produced by Google, 5-11-2011
Encoded date : UTC 2018-11-05 16:50:30
Tagged date : UTC 2018-11-05 16:52:40



หมายเหตุ ทุกเว็บโหลดแทนกันได้ แต่ต้องเปลี่ยนชื่อให้เรียงกันด้วย

สำหรับสมาชิก VIP เท่านั้น!

[restrict …]

|——————————————————————|

|——————————————————————|

[/restrict]