Home > Master > [MINI-HD 1080P] Dark Waters (2019) พลิกน้ำเน่าคดีฉาวโลก [เสียงอังกฤษ DTS + พากย์ไทย 5.1 Master] [บรรยาย: ไทย-อังกฤษ Master + ซับ PGS คมชัด] [MASTER] [MKV]

[MINI-HD 1080P] Dark Waters (2019) พลิกน้ำเน่าคดีฉาวโลก [เสียงอังกฤษ DTS + พากย์ไทย 5.1 Master] [บรรยาย: ไทย-อังกฤษ Master + ซับ PGS คมชัด] [MASTER] [MKV]

Dark Waters (2019) พลิกน้ำเน่าคดีฉาวโลก

{MINI Super-HQ}_Dark.Waters.2019.1080p.BrRip.DTS.x264.Load2up.com.mkv
Format : Matroska
Format version : Version 4
File size : 4.59 GiB
Duration : 2 h 7 min
Overall bit rate : 5 167 kb/s
Movie name : {MINI Super-HQ}_Dark.Waters.2019.1080p.BrRip.DTS.x264
Encoded date : UTC 2020-05-21 20:35:14
Writing application : mkvmerge v9.8.0 (‘Kuglblids’) 64bit
Writing library : libebml v1.3.4 + libmatroska v1.4.5

Video
ID : 1
Format : AVC
Format/Info : Advanced Video Codec
Format profile : [email protected]
Format settings : CABAC / 5 Ref Frames
Format settings, CABAC : Yes
Format settings, ReFrames : 5 frames
Codec ID : V_MPEG4/ISO/AVC
Duration : 2 h 7 min
Bit rate : 3 608 kb/s
Width : 1 920 pixels
Height : 804 pixels
Display aspect ratio : 2.40:1
Frame rate mode : Constant
Frame rate : 23.976 (24000/1001) FPS
Color space : YUV
Chroma subsampling : 4:2:0
Bit depth : 8 bits
Scan type : Progressive
Bits/(Pixel*Frame) : 0.097
Stream size : 3.20 GiB (70%)
Title : {MINI Super-HQ}_Dark.Waters.2019.1080p.BrRip.DTS.x264
Language : English
Default : Yes
Forced : Yes

Audio #1
ID : 2
Format : AC-3
Format/Info : Audio Coding 3
Commercial name : Dolby Digital
Codec ID : A_AC3
Duration : 2 h 6 min
Bit rate mode : Constant
Bit rate : 448 kb/s
Channel(s) : 6 channels
Channel layout : L R C LFE Ls Rs
Sampling rate : 48.0 kHz
Frame rate : 31.250 FPS (1536 SPF)
Bit depth : 16 bits
Compression mode : Lossy
Stream size : 407 MiB (9%)
Title : Thai DVD Master
Language : Thai
Service kind : Complete Main
Default : Yes
Forced : Yes

Audio #2
ID : 3
Format : DTS
Format/Info : Digital Theater Systems
Codec ID : A_DTS
Duration : 2 h 7 min
Bit rate mode : Constant
Bit rate : 755 kb/s
Channel(s) : 6 channels
Channel layout : C L R Ls Rs LFE
Sampling rate : 48.0 kHz
Frame rate : 93.750 FPS (512 SPF)
Bit depth : 24 bits
Compression mode : Lossy
Stream size : 686 MiB (15%)
Title : English DTS
Language : English
Default : No
Forced : No

Text #1
ID : 4
Format : VobSub
Codec ID : S_VOBSUB
Codec ID/Info : Picture based subtitle format used on DVDs
Duration : 2 h 2 min
Bit rate : 6 416 b/s
Count of elements : 1550
Stream size : 5.61 MiB (0%)
Title : Thai 720p
Language : Thai
Default : No
Forced : No

Text #2
ID : 5
Format : VobSub
Codec ID : S_VOBSUB
Codec ID/Info : Picture based subtitle format used on DVDs
Duration : 2 h 2 min
Bit rate : 11.7 kb/s
Count of elements : 1550
Stream size : 10.2 MiB (0%)
Title : Thai 1080p
Language : Thai
Default : Yes
Forced : Yes

Text #3
ID : 6
Format : VobSub
Codec ID : S_VOBSUB
Codec ID/Info : Picture based subtitle format used on DVDs
Duration : 2 h 2 min
Bit rate : 11.7 kb/s
Count of elements : 1550
Stream size : 10.2 MiB (0%)
Title : Thai 1080p Yellow
Language : Thai
Default : No
Forced : No

Text #4
ID : 7
Format : VobSub
Codec ID : S_VOBSUB
Codec ID/Info : Picture based subtitle format used on DVDs
Duration : 2 h 2 min
Bit rate : 16.1 kb/s
Count of elements : 1550
Stream size : 14.1 MiB (0%)
Title : Thai 1080p Big
Language : Thai
Default : No
Forced : No

Text #5
ID : 8
Format : PGS
Codec ID : S_HDMV/PGS
Codec ID/Info : Picture based subtitle format used on BDs/HD-DVDs
Duration : 2 h 2 min
Bit rate : 49.2 kb/s
Count of elements : 3100
Stream size : 43.0 MiB (1%)
Title : Thai 1080p Out
Language : Thai
Default : No
Forced : No

Text #6
ID : 9
Format : PGS
Codec ID : S_HDMV/PGS
Codec ID/Info : Picture based subtitle format used on BDs/HD-DVDs
Duration : 2 h 2 min
Bit rate : 49.2 kb/s
Count of elements : 3100
Stream size : 43.0 MiB (1%)
Title : Thai 1080p PGS
Language : Thai
Default : No
Forced : No

Text #7
ID : 10
Format : PGS
Codec ID : S_HDMV/PGS
Codec ID/Info : Picture based subtitle format used on BDs/HD-DVDs
Duration : 2 h 2 min
Bit rate : 49.3 kb/s
Count of elements : 3100
Stream size : 43.1 MiB (1%)
Title : Thai 1080p Yellow PGS
Language : Thai
Default : No
Forced : No

Text #8
ID : 11
Format : PGS
Codec ID : S_HDMV/PGS
Codec ID/Info : Picture based subtitle format used on BDs/HD-DVDs
Duration : 2 h 2 min
Bit rate : 73.9 kb/s
Count of elements : 3100
Stream size : 64.6 MiB (1%)
Title : Thai 1080p Big PGS
Language : Thai
Default : No
Forced : No

Text #9
ID : 12
Format : PGS
Codec ID : S_HDMV/PGS
Codec ID/Info : Picture based subtitle format used on BDs/HD-DVDs
Duration : 2 h 2 min
Bit rate : 46.5 kb/s
Count of elements : 3100
Stream size : 40.7 MiB (1%)
Title : Thai 1080p Out PGS
Language : Thai
Default : No
Forced : No

Text #10
ID : 13
Format : PGS
Codec ID : S_HDMV/PGS
Codec ID/Info : Picture based subtitle format used on BDs/HD-DVDs
Duration : 2 h 3 min
Bit rate : 52.6 kb/s
Count of elements : 3966
Stream size : 46.5 MiB (1%)
Title : English
Language : English
Default : No
Forced : No



หมายเหตุ ทุกเว็บโหลดแทนกันได้ แต่ต้องเปลี่ยนชื่อให้เรียงกันด้วย

สำหรับสมาชิก VIP เท่านั้น!

[restrict …]

|——————————————————————|

|——————————————————————|

[/restrict]

%d bloggers like this: