Home > Mini-HD > [MINI-HD 1080P] Captive State (2019) สงครามปฏิวัติทวงโลก [พากย์ไทยโรง 5.1 + เสียงอังกฤษ DTS] [บรรยายอังกฤษ From Blu-ray Master] [MKV]

[MINI-HD 1080P] Captive State (2019) สงครามปฏิวัติทวงโลก [พากย์ไทยโรง 5.1 + เสียงอังกฤษ DTS] [บรรยายอังกฤษ From Blu-ray Master] [MKV]

[MINI-HD 1080P] Captive State (2019) สงครามปฏิวัติทวงโลก

Captive State 2019.720p.BluRay.THR5.1.x264[Load2up.com].mkv
Format : Matroska
Format version : Version 4
File size : 4.71 GiB
Duration : 1 h 49 min
Overall bit rate : 6 153 kb/s
Movie name : Captive State 2019.720p.BluRay.THR5.1.x264
Encoded date : UTC 2019-05-30 07:45:34
Writing application : mkvmerge v9.9.0 (‘Pick Up’) 64bit
Writing library : libebml v1.3.4 + libmatroska v1.4.5

Video
ID : 1
Format : AVC
Format/Info : Advanced Video Codec
Format profile : [email protected]
Format settings : CABAC / 5 Ref Frames
Format settings, CABAC : Yes
Format settings, ReFrames : 5 frames
Codec ID : V_MPEG4/ISO/AVC
Duration : 1 h 49 min
Bit rate : 4 194 kb/s
Width : 1 280 pixels
Height : 536 pixels
Display aspect ratio : 2.40:1
Frame rate mode : Constant
Frame rate : 23.976 (24000/1001) FPS
Color space : YUV
Chroma subsampling : 4:2:0
Bit depth : 8 bits
Scan type : Progressive
Bits/(Pixel*Frame) : 0.255
Stream size : 3.21 GiB (68%)
Title : Captive State 2019.720p.BluRay.THR5.1.x264
Writing library : x264 core 157 r2969 d4099dd
Language : English
Default : Yes
Forced : No

Audio #1
ID : 2
Format : AC-3
Format/Info : Audio Coding 3
Commercial name : Dolby Digital
Codec ID : A_AC3
Duration : 1 h 49 min
Bit rate mode : Constant
Bit rate : 448 kb/s
Channel(s) : 6 channels
Channel layout : L R C LFE Ls Rs
Sampling rate : 48.0 kHz
Frame rate : 31.250 FPS (1536 SPF)
Bit depth : 16 bits
Compression mode : Lossy
Stream size : 351 MiB (7%)
Title : ThaiRong 5.1 @ 448 kb/s
Language : Thai
Service kind : Complete Main
Default : Yes
Forced : Yes

Audio #2
ID : 3
Format : DTS
Format/Info : Digital Theater Systems
Codec ID : A_DTS
Duration : 1 h 49 min
Bit rate mode : Constant
Bit rate : 1 509 kb/s
Channel(s) : 6 channels
Channel layout : C L R Ls Rs LFE
Sampling rate : 48.0 kHz
Frame rate : 93.750 FPS (512 SPF)
Bit depth : 24 bits
Compression mode : Lossy
Stream size : 1.15 GiB (25%)
Title : Englisg DTS
Language : English
Default : No
Forced : No

Text
ID : 4
Format : UTF-8
Codec ID : S_TEXT/UTF8
Codec ID/Info : UTF-8 Plain Text
Duration : 1 h 45 min
Bit rate : 46 b/s
Count of elements : 1123
Stream size : 35.6 KiB (0%)
Title : English
Language : English
Default : No
Forced : No



หมายเหตุ ทุกเว็บโหลดแทนกันได้ แต่ต้องเปลี่ยนชื่อให้เรียงกันด้วย

สำหรับสมาชิก VIP เท่านั้น!

[restrict …]

|——————————————————————|

|——————————————————————|

[/restrict]