Home > Mini-HD > [MINI-HD 1080P] Bumblebee (2018) บัมเบิ้ลบี [พากย์:ไทยโรง-อังกฤษ] [SUB:เกาหลีฝัง] [MKV]

[MINI-HD 1080P] Bumblebee (2018) บัมเบิ้ลบี [พากย์:ไทยโรง-อังกฤษ] [SUB:เกาหลีฝัง] [MKV]

[MINI-HD 1080P] Bumblebee (2018) บัมเบิ้ลบี

Bumblebee.2018.RERIP.1080p.KORSUB.HDRip.x264.AAC2.0-THR.AC3.2.0[Load2up.com].mkv
Format : Matroska
Format version : Version 4 / Version 2
File size : 5.43 GiB
Duration : 1 h 53 min
Overall bit rate : 6 827 kb/s
Encoded date : UTC 2019-01-19 03:15:21
Writing application : mkvmerge v26.0.0 (‘In The Game’) 32-bit
Writing library : libebml v1.3.6 + libmatroska v1.4.9

Video
ID : 1
Format : AVC
Format/Info : Advanced Video Codec
Format profile : [email protected]
Format settings, CABAC : Yes
Format settings, RefFrames : 4 frames
Codec ID : V_MPEG4/ISO/AVC
Duration : 1 h 53 min
Bit rate : 6 500 kb/s
Width : 1 920 pixels
Height : 1 080 pixels
Display aspect ratio : 16:9
Frame rate mode : Constant
Frame rate : 29.970 (30000/1001) FPS
Color space : YUV
Chroma subsampling : 4:2:0
Bit depth : 8 bits
Scan type : Progressive
Bits/(Pixel*Frame) : 0.105
Stream size : 5.07 GiB (93%)
Writing library : x264 core 148 r2795M aaa9aa8
Default : Yes
Forced : No

Audio #1
ID : 2
Format : AC-3
Format/Info : Audio Coding 3
Format settings, Endianness : Big
Codec ID : A_AC3
Duration : 1 h 53 min
Bit rate mode : Constant
Bit rate : 192 kb/s
Channel(s) : 2 channels
Channel positions : Front: L R
Sampling rate : 48.0 kHz
Frame rate : 31.250 FPS (1536 SPF)
Bit depth : 16 bits
Compression mode : Lossy
Stream size : 156 MiB (3%)
Title : THR_by_TTWW
Language : hai
Service kind : Complete Main
Default : Yes
Forced : No

Audio #2
ID : 3
Format : AAC
Format/Info : Advanced Audio Codec
Format profile : LC
Codec ID : A_AAC
Duration : 1 h 53 min
Bit rate : 256 kb/s
Channel(s) : 2 channels
Channel positions : Front: L R
Sampling rate : 48.0 kHz
Frame rate : 46.875 FPS (1024 SPF)
Compression mode : Lossy
Delay relative to video : 112 ms
Stream size : 208 MiB (4%)
Language : English
Default : No
Forced : No



หมายเหตุ ทุกเว็บโหลดแทนกันได้ แต่ต้องเปลี่ยนชื่อให้เรียงกันด้วย

สำหรับสมาชิก VIP เท่านั้น!

[restrict …]

|——————————————————————|

|——————————————————————|

[/restrict]

%d bloggers like this: