Home > Mini-HD > [MINI-HD 1080P] Bad Times at the El Royale (2018) ห้วงวิกฤตที่ เอล โรแยล [Soundtrack บรรยายไทย] [MKV]

[MINI-HD 1080P] Bad Times at the El Royale (2018) ห้วงวิกฤตที่ เอล โรแยล [Soundtrack บรรยายไทย] [MKV]

[MINI-HD 1080P] Bad Times at the El Royale (2018) ห้วงวิกฤตที่ เอล โรแยล

Bad.Times.at.the.El.Royale.2018.1080p.WEB-DL.DD5.1.H264-[Load2up.com].mkv
Format : Matroska
Format version : Version 4 / Version 2
File size : 4.89 GiB
Duration : 2 h 22 min
Overall bit rate : 4 925 kb/s
Movie name : Bad.Times.at.the.El.Royale.2018.1080p.WEB-DL.DD5.1.H264-SubThai
Encoded date : UTC 2019-01-01 12:26:30
Writing application : mkvmerge v29.0.0 (‘Like It Or Not’) 64-bit
Writing library : libebml v1.3.6 + libmatroska v1.4.9

Video
ID : 1
Format : AVC
Format/Info : Advanced Video Codec
Format profile : [email protected]
Format settings, CABAC : Yes
Format settings, RefFrames : 5 frames
Codec ID : V_MPEG4/ISO/AVC
Duration : 2 h 22 min
Bit rate : 4 537 kb/s
Width : 1 920 pixels
Height : 804 pixels
Display aspect ratio : 2.40:1
Frame rate mode : Constant
Frame rate : 23.976 (24000/1001) FPS
Color space : YUV
Chroma subsampling : 4:2:0
Bit depth : 8 bits
Scan type : Progressive
Bits/(Pixel*Frame) : 0.123
Stream size : 4.51 GiB (92%)
Title : Bad.Times.at.the.El.Royale.2018.1080p.WEB-DL.DD5.1.H264
Language : English
Default : Yes
Forced : No
Color range : Limited
Color primaries : BT.709
Transfer characteristics : BT.709
Matrix coefficients : BT.709

Audio
ID : 2
Format : AC-3
Format/Info : Audio Coding 3
Format settings, Endianness : Big
Codec ID : A_AC3
Duration : 2 h 21 min
Bit rate mode : Constant
Bit rate : 384 kb/s
Channel(s) : 6 channels
Channel positions : Front: L C R, Side: L R, LFE
Sampling rate : 48.0 kHz
Frame rate : 31.250 FPS (1536 SPF)
Bit depth : 16 bits
Compression mode : Lossy
Delay relative to video : -43 ms
Stream size : 389 MiB (8%)
Title : Bad.Times.at.the.El.Royale.2018.1080p.WEB-DL.DD5.1.H264
Language : English
Service kind : Complete Main
Default : Yes
Forced : No

Text
ID : 3
Format : VobSub
Muxing mode : zlib
Codec ID : S_VOBSUB
Codec ID/Info : Picture based subtitle format used on DVDs
Duration : 2 h 13 min
Bit rate : 8 973 b/s
Count of elements : 1478
Stream size : 8.54 MiB (0%)
Title : Thai,VOB
Language : Thai
Default : Yes
Forced : Yes



หมายเหตุ ทุกเว็บโหลดแทนกันได้ แต่ต้องเปลี่ยนชื่อให้เรียงกันด้วย

สำหรับสมาชิก VIP เท่านั้น!

[restrict …]

|——————————————————————|

|——————————————————————|

[/restrict]