Home > Mini-HD > [MINI-HD 1080P] Annabelle: Creation (2017) แอนนาเบลล์ กำเนิดตุ๊กตาผี [พากย์ไทยโรง + อังกฤษ] [MKV] [ONE2UP]

[MINI-HD 1080P] Annabelle: Creation (2017) แอนนาเบลล์ กำเนิดตุ๊กตาผี [พากย์ไทยโรง + อังกฤษ] [MKV] [ONE2UP]

[MINI-HD 1080P] Annabelle: Creation (2017) แอนนาเบลล์ กำเนิดตุ๊กตาผี

ในภาพยนตร์เรื่อง “Annabelle: Creation” เป็นเรื่องราวหลายปีหลังจากลูกสาวตัวน้อยของพวกเขาเสียชีวิตลงอย่างน่าเศร้า ผู้ผลิตตุ๊กตาและภรรยาของเขาได้เชิญแม่ชีกับเด็กผู้หญิงอีกหลายคนจากสถานรับเลี้ยงเด็กกำพร้ามาที่บ้านพวกเขา หลังจากนั้นจึงตกเป็นเป้าหมายของ แอนนาเบล ตุ๊กตาผีสิงที่ผู้ผลิตตุ๊กตาเป็นคนสร้างขึ้นมา

Annabelle.Creation.2017.1080p.KORSUB.HDRip.X264.ThaIRong2.0[Load2up.com].mkv
Format : Matroska
Format version : Version 4 / Version 2
File size : 3.48 GiB
Duration : 1 h 49 min
Overall bit rate : 4 557 kb/s
Movie name : Annabelle.Creation.2017.1080p.KORSUB.HDRip.X264.ThaIRong2.0
Encoded date : UTC 2017-09-14 18:47:45
Writing application : mkvmerge v9.9.0 (‘Pick Up’) 64bit
Writing library : libebml v1.3.4 + libmatroska v1.4.5

Video
ID : 1
Format : AVC
Format/Info : Advanced Video Codec
Format profile : [email protected]
Format settings, CABAC : Yes
Format settings, ReFrames : 2 frames
Format settings, GOP : M=3, N=13
Codec ID : V_MPEG4/ISO/AVC
Duration : 1 h 49 min
Bit rate : 4 106 kb/s
Width : 1 920 pixels
Height : 1 080 pixels
Display aspect ratio : 16:9
Frame rate mode : Constant
Frame rate : 23.976 (24000/1001) FPS
Color space : YUV
Chroma subsampling : 4:2:0
Bit depth : 8 bits
Scan type : Progressive
Bits/(Pixel*Frame) : 0.083
Stream size : 3.14 GiB (90%)
Title : Annabelle.Creation.2017.1080p.KORSUB.HDRip.X264.ThaIRong2.0
Language : English
Default : Yes
Forced : No

Audio #1
ID : 2
Format : AC-3
Format/Info : Audio Coding 3
Format settings, Endianness : Big
Codec ID : A_AC3
Duration : 1 h 49 min
Bit rate mode : Constant
Bit rate : 192 kb/s
Channel(s) : 2 channels
Channel positions : Front: L R
Sampling rate : 48.0 kHz
Frame rate : 31.250 FPS (1536 spf)
Bit depth : 16 bits
Compression mode : Lossy
Stream size : 150 MiB (4%)
Title : AC-3 ThaiRong 2.0 By ~Mr.Captain~
Language : Thai
Service kind : Complete Main
Default : Yes
Forced : No

Audio #2
ID : 3
Format : AC-3
Format/Info : Audio Coding 3
Format settings, Endianness : Big
Codec ID : A_AC3
Duration : 1 h 49 min
Bit rate mode : Constant
Bit rate : 256 kb/s
Channel(s) : 2 channels
Channel positions : Front: L R
Sampling rate : 48.0 kHz
Frame rate : 31.250 FPS (1536 spf)
Bit depth : 16 bits
Compression mode : Lossy
Delay relative to video : 32 ms
Stream size : 200 MiB (6%)
Title : AC-3 English 2.0
Language : English
Service kind : Complete Main
Default : No
Forced : No



หมายเหตุ ทุกเว็บโหลดแทนกันได้ แต่ต้องเปลี่ยนชื่อให้เรียงกันด้วย

สำหรับสมาชิก VIP เท่านั้น!

[restrict …]

|——————————————————————|

|——————————————————————|

[/restrict]

%d bloggers like this: