Home > Master > [MINI-HD 1080P] Alive (2020) คนเป็นฝ่านรกซอมบี้ [เสียงไทย 5.1 + เสียงเกาหลี 5.1 Atmos] [บรรยายไทย + อังกฤษ] [เสียง + ซับไทย Master From Netflix + ซับPGS] [MASTER] [MKV]

[MINI-HD 1080P] Alive (2020) คนเป็นฝ่านรกซอมบี้ [เสียงไทย 5.1 + เสียงเกาหลี 5.1 Atmos] [บรรยายไทย + อังกฤษ] [เสียง + ซับไทย Master From Netflix + ซับPGS] [MASTER] [MKV]

Alive (2020) คนเป็นฝ่านรกซอมบี้

Alive.2020.1080p.NF.WEB-DL.DDP5.1.Atmos.x264.Load2up.com.mkv
Format : Matroska
Format version : Version 4
File size : 4.66 GiB
Duration : 1 h 38 min
Overall bit rate mode : Variable
Overall bit rate : 6 775 kb/s
Movie name : Alive.2020.1080p.NF.WEB-DL.DDP5.1.Atmos.x264
Encoded date : UTC 2020-09-08 08:15:29
Writing application : mkvmerge v49.0.0 (‘Sick Of Losing Soulmates’) 64-bit
Writing library : libebml v1.4.0 + libmatroska v1.6.1

Video
ID : 1
Format : AVC
Format/Info : Advanced Video Codec
Format profile : [email protected]
Format settings : CABAC / 3 Ref Frames
Format settings, CABAC : Yes
Format settings, ReFrames : 3 frames
Codec ID : V_MPEG4/ISO/AVC
Duration : 1 h 38 min
Bit rate mode : Variable
Bit rate : 5 360 kb/s
Maximum bit rate : 8 040 kb/s
Width : 1 920 pixels
Height : 1 080 pixels
Display aspect ratio : 16:9
Frame rate mode : Constant
Frame rate : 23.976 (24000/1001) FPS
Color space : YUV
Chroma subsampling : 4:2:0
Bit depth : 8 bits
Scan type : Progressive
Bits/(Pixel*Frame) : 0.108
Stream size : 3.67 GiB (79%)
Title : Alive.2020.1080p.NF.WEB-DL.DDP5.1.Atmos.x264
Writing library : x264 core 148 r2722 1b0121b
Language : Korean
Default : Yes
Forced : No

Audio #1
ID : 2
Format : E-AC-3 JOC
Format/Info : Enhanced AC-3 with Joint Object Coding
Commercial name : Dolby Digital Plus with Dolby Atmos
Codec ID : A_EAC3
Duration : 1 h 38 min
Bit rate mode : Constant
Bit rate : 768 kb/s
Channel(s) : 6 channels
Channel layout : L R C LFE Ls Rs
Sampling rate : 48.0 kHz
Frame rate : 31.250 FPS (1536 SPF)
Compression mode : Lossy
Stream size : 541 MiB (11%)
Language : Korean
Service kind : Complete Main
Default : No
Forced : No
Complexity index : 16
Number of dynamic objects : 15
Bed channel count : 1 channel
Bed channel configuration : LFE

Audio #2
ID : 3
Format : E-AC-3
Format/Info : Enhanced AC-3
Commercial name : Dolby Digital Plus
Codec ID : A_EAC3
Duration : 1 h 38 min
Bit rate mode : Constant
Bit rate : 640 kb/s
Channel(s) : 6 channels
Channel layout : L R C LFE Ls Rs
Sampling rate : 48.0 kHz
Frame rate : 31.250 FPS (1536 SPF)
Compression mode : Lossy
Stream size : 451 MiB (9%)
Language : Thai
Service kind : Complete Main
Default : Yes
Forced : No

Text #1
ID : 4
Format : UTF-8
Codec ID : S_TEXT/UTF8
Codec ID/Info : UTF-8 Plain Text
Duration : 1 h 37 min
Bit rate : 58 b/s
Count of elements : 665
Stream size : 41.5 KiB (0%)
Title : Thai SRT From Netflix
Language : Thai
Default : Yes
Forced : No

Text #2
ID : 5
Format : UTF-8
Codec ID : S_TEXT/UTF8
Codec ID/Info : UTF-8 Plain Text
Duration : 1 h 37 min
Bit rate : 6 b/s
Count of elements : 69
Stream size : 4.89 KiB (0%)
Title : Thai SRT From Netflix Forced
Language : Thai
Default : No
Forced : No

Text #3
ID : 6
Format : UTF-8
Codec ID : S_TEXT/UTF8
Codec ID/Info : UTF-8 Plain Text
Duration : 1 h 36 min
Bit rate : 25 b/s
Count of elements : 615
Stream size : 17.9 KiB (0%)
Title : English SRT
Language : English
Default : No
Forced : No

Text #4
ID : 7
Format : PGS
Muxing mode : zlib
Codec ID : S_HDMV/PGS
Codec ID/Info : Picture based subtitle format used on BDs/HD-DVDs
Duration : 1 h 37 min
Bit rate : 17.7 kb/s
Count of elements : 1330
Stream size : 12.3 MiB (0%)
Title : Thai PGS [Angsana] Language : Thai
Default : No
Forced : No

Text #5
ID : 8
Format : PGS
Muxing mode : zlib
Codec ID : S_HDMV/PGS
Codec ID/Info : Picture based subtitle format used on BDs/HD-DVDs
Duration : 1 h 37 min
Bit rate : 17.7 kb/s
Count of elements : 1330
Stream size : 12.3 MiB (0%)
Title : Thai PGS [Angsana Yellow] Language : Thai
Default : No
Forced : No

Text #6
ID : 9
Format : PGS
Muxing mode : zlib
Codec ID : S_HDMV/PGS
Codec ID/Info : Picture based subtitle format used on BDs/HD-DVDs
Duration : 1 h 37 min
Bit rate : 17.4 kb/s
Count of elements : 1330
Stream size : 12.1 MiB (0%)
Title : Thai PGS [Sarabun] Language : Thai
Default : No
Forced : No

Text #7
ID : 10
Format : PGS
Muxing mode : zlib
Codec ID : S_HDMV/PGS
Codec ID/Info : Picture based subtitle format used on BDs/HD-DVDs
Duration : 1 h 37 min
Bit rate : 17.4 kb/s
Count of elements : 1330
Stream size : 12.1 MiB (0%)
Title : Thai PGS [Sarabun Yellow] Language : Thai
Default : No
Forced : No

Text #8
ID : 11
Format : PGS
Muxing mode : zlib
Codec ID : S_HDMV/PGS
Codec ID/Info : Picture based subtitle format used on BDs/HD-DVDs
Duration : 1 h 36 min
Bit rate : 14.6 kb/s
Count of elements : 1230
Stream size : 10.1 MiB (0%)
Title : English PGS
Language : English
Default : No
Forced : No



หมายเหตุ ทุกเว็บโหลดแทนกันได้ แต่ต้องเปลี่ยนชื่อให้เรียงกันด้วย


สำหรับสมาชิก VIP เท่านั้น!

[restrict …]

|——————————————————————|

|——————————————————————|

[/restrict]

%d bloggers like this: