Home > Mini-HD > [MINI-HD 1080P] A Quiet Place (2018) ดินแดนไร้เสียง [พากย์ไทยโรง 2.0 + เสียงอังกฤษ 2.0] [บรรยายไทย + เกาหลีฝัง] [MKV] [ONE2UP]

[MINI-HD 1080P] A Quiet Place (2018) ดินแดนไร้เสียง [พากย์ไทยโรง 2.0 + เสียงอังกฤษ 2.0] [บรรยายไทย + เกาหลีฝัง] [MKV] [ONE2UP]

[MINI-HD 1080P] A Quiet Place (2018) ดินแดนไร้เสียง

A.Quiet.Place.2018.1080p.KORSUB.HDRip.x264.AC3.THR2.0[load2up.com].mkv
Format : Matroska
Format version : Version 4 / Version 2
File size : 3.76 GiB
Duration : 1 h 30 min
Overall bit rate : 5 960 kb/s
Movie name : A.Quiet.Place.2018.1080p.KORSUB.HDRip.x264.AC3.THR2.0
Encoded date : UTC 2018-05-22 14:02:35
Writing application : mkvmerge v9.9.0 (‘Pick Up’) 64bit
Writing library : libebml v1.3.4 + libmatroska v1.4.5
Cover : Yes
Attachments : cover.jpg

Video
ID : 1
Format : AVC
Format/Info : Advanced Video Codec
Format profile : [email protected]
Format settings, CABAC : Yes
Format settings, ReFrames : 4 frames
Codec ID : V_MPEG4/ISO/AVC
Duration : 1 h 30 min
Bit rate : 5 500 kb/s
Width : 1 920 pixels
Height : 800 pixels
Display aspect ratio : 2.40:1
Frame rate mode : Constant
Frame rate : 29.970 (30000/1001) FPS
Color space : YUV
Chroma subsampling : 4:2:0
Bit depth : 8 bits
Scan type : Progressive
Bits/(Pixel*Frame) : 0.119
Stream size : 3.47 GiB (92%)
Title : A.Quiet.Place.2018.1080p.KORSUB.HDRip.x264.AC3.THR2.0
Writing library : x264 core 148 r2795M aaa9aa8
Language : English
Default : Yes
Forced : No

Audio #1
ID : 2
Format : AC-3
Format/Info : Audio Coding 3
Format settings, Endianness : Big
Codec ID : A_AC3
Duration : 1 h 30 min
Bit rate mode : Constant
Bit rate : 192 kb/s
Channel(s) : 2 channels
Channel positions : Front: L R
Sampling rate : 48.0 kHz
Frame rate : 31.250 FPS (1536 spf)
Bit depth : 16 bits
Compression mode : Lossy
Delay relative to video : -43 ms
Stream size : 124 MiB (3%)
Title : THR 2.0 Modified By ~Mr.Captain~
Language : Thai
Service kind : Complete Main
Default : Yes
Forced : No

Audio #2
ID : 3
Format : AAC
Format/Info : Advanced Audio Codec
Format profile : LC
Codec ID : A_AAC
Duration : 1 h 30 min
Bit rate : 256 kb/s
Channel(s) : 2 channels
Channel positions : Front: L R
Sampling rate : 48.0 kHz
Frame rate : 46.875 FPS (1024 spf)
Compression mode : Lossy
Delay relative to video : -43 ms
Stream size : 165 MiB (4%)
Title : English 2.0
Language : English
Default : No
Forced : No

Text #1
ID : 4
Format : VobSub
Codec ID : S_VOBSUB
Codec ID/Info : Picture based subtitle format used on DVDs
Duration : 1 h 19 min
Bit rate : 778 b/s
Count of elements : 136
Stream size : 456 KiB (0%)
Title : Thai 1080p
Language : Thai
Default : Yes
Forced : Yes

Text #2
ID : 5
Format : VobSub
Codec ID : S_VOBSUB
Codec ID/Info : Picture based subtitle format used on DVDs
Duration : 1 h 19 min
Bit rate : 429 b/s
Count of elements : 136
Stream size : 252 KiB (0%)
Title : Thai 720p
Language : Thai
Default : No
Forced : No

Text #3
ID : 6
Format : UTF-8
Codec ID : S_TEXT/UTF8
Codec ID/Info : UTF-8 Plain Text
Duration : 1 h 19 min
Bit rate : 6 b/s
Count of elements : 138
Stream size : 3.59 KiB (0%)
Title : English Srt
Language : English
Default : No
Forced : No

Text #4
ID : 7
Format : PGS
Codec ID : S_HDMV/PGS
Codec ID/Info : Picture based subtitle format used on BDs/HD-DVDs
Duration : 1 h 19 min
Bit rate : 2 081 b/s
Count of elements : 276
Stream size : 1.19 MiB (0%)
Title : Thai DilleniaUPC PGS
Language : Thai
Default : No
Forced : No

Text #5
ID : 8
Format : PGS
Codec ID : S_HDMV/PGS
Codec ID/Info : Picture based subtitle format used on BDs/HD-DVDs
Duration : 1 h 19 min
Bit rate : 2 253 b/s
Count of elements : 276
Stream size : 1.29 MiB (0%)
Title : Thai AngsanaUPC PGS
Language : Thai
Default : No
Forced : No



หมายเหตุ ทุกเว็บโหลดแทนกันได้ แต่ต้องเปลี่ยนชื่อให้เรียงกันด้วย

สำหรับสมาชิก VIP เท่านั้น!

[restrict …]

|——————————————————————|

|——————————————————————|

[/restrict]