Home > Anime > [MINI-HD 1080P] Hello World (2019) เธอ.ฉัน.โลก.เรา [เสียง: พากย์ไทย 5.1 + เสียงญี่ปุ่น TrueHD 7.1 Atmos] [บรรยาย: อังกฤษ + ญี่ปุ่น] [MASTER] [MKV]

[MINI-HD 1080P] Hello World (2019) เธอ.ฉัน.โลก.เรา [เสียง: พากย์ไทย 5.1 + เสียงญี่ปุ่น TrueHD 7.1 Atmos] [บรรยาย: อังกฤษ + ญี่ปุ่น] [MASTER] [MKV]

Hello World (2019) เธอ.ฉัน.โลก.เรา

Hello.World.2019.1080p.BDRip.TrueHD_7.1.Atmos.H264.Hi10p.Load2up.com.mkv
Format : Matroska
Format version : Version 4
File size : 4.34 GiB
Duration : 1 h 37 min
Overall bit rate mode : Variable
Overall bit rate : 6 357 kb/s
Movie name : Hello.World.2019.1080p.BDRip.TrueHD_7.1.Atmos.H264.Hi10p
Description : Encoded by MiniFreeza
Encoded date : UTC 2020-08-02 00:31:48
Writing application : mkvmerge v47.0.0 (‘Black Flag’) 64-bit
Writing library : libebml v1.3.10 + libmatroska v1.5.2 / Lavf58.42.100

Video
ID : 1
Format : HEVC
Format/Info : High Efficiency Video Coding
Format profile : Main [email protected]@Main
Codec ID : V_MPEGH/ISO/HEVC
Duration : 1 h 37 min
Bit rate : 1 400 kb/s
Width : 1 920 pixels
Height : 1 080 pixels
Display aspect ratio : 16:9
Frame rate mode : Constant
Frame rate : 23.976 (24000/1001) FPS
Color space : YUV
Chroma subsampling : 4:2:0
Bit depth : 10 bits
Bits/(Pixel*Frame) : 0.028
Stream size : 979 MiB (22%)
Title : Hello.World.2019.1080p.BDRip.TrueHD_7.1.Atmos.H264.Hi10p
Writing library : Lavc58.77.101 libx265
Language : Japanese
Default : Yes
Forced : No
Color range : Limited
Color primaries : BT.709
Transfer characteristics : BT.709
Matrix coefficients : BT.709

Audio #1
ID : 2
Format : AC-3
Format/Info : Audio Coding 3
Commercial name : Dolby Digital
Codec ID : A_AC3
Duration : 1 h 37 min
Bit rate mode : Constant
Bit rate : 448 kb/s
Channel(s) : 6 channels
Channel layout : L R C LFE Ls Rs
Sampling rate : 48.0 kHz
Frame rate : 31.250 FPS (1536 SPF)
Bit depth : 16 bits
Compression mode : Lossy
Stream size : 313 MiB (7%)
Title : Thai 5.1 From DVD Master @ 48 kb/s
Language : Thai
Service kind : Complete Main
Default : Yes
Forced : Yes

Audio #2
ID : 3
Format : MLP FBA 16-ch
Format/Info : Meridian Lossless Packing FBA with 16-channel presentation
Commercial name : Dolby TrueHD with Dolby Atmos
Codec ID : A_TRUEHD
Duration : 1 h 37 min
Bit rate mode : Variable
Bit rate : 4 428 kb/s
Maximum bit rate : 9 036 kb/s
Channel(s) : 8 channels
Channel layout : L R C LFE Ls Rs Lb Rb
Sampling rate : 48.0 kHz
Frame rate : 1 200.000 FPS (40 SPF)
Compression mode : Lossless
Stream size : 3.02 GiB (70%)
Title : Dolby TrueHD Atmos 7.1 (Untouched)
Language : Japanese
Default : No
Forced : No
Number of dynamic objects : 15
Bed channel count : 1 channel
Bed channel configuration : LFE

Text #1
ID : 4
Format : PGS
Muxing mode : zlib
Codec ID : S_HDMV/PGS
Codec ID/Info : Picture based subtitle format used on BDs/HD-DVDs
Duration : 1 h 36 min
Bit rate : 27.5 kb/s
Count of elements : 2401
Stream size : 19.1 MiB (0%)
Title : JAPANESE-PGS Sub (Untouched)
Language : Japanese
Default : Yes
Forced : No

Text #2
ID : 5
Format : ASS
Codec ID : S_TEXT/ASS
Codec ID/Info : Advanced Sub Station Alpha
Duration : 1 h 36 min
Bit rate : 72 b/s
Count of elements : 1066
Compression mode : Lossless
Stream size : 51.2 KiB (0%)
Title : Eng Sub (Dialogues+Songs) Marshall ~ AnimeKayo, Lonely Hikikomori
Language : English
Default : No
Forced : No

Text #3
ID : 6
Format : ASS
Codec ID : S_TEXT/ASS
Codec ID/Info : Advanced Sub Station Alpha
Duration : 1 h 36 min
Bit rate : 72 b/s
Count of elements : 1066
Compression mode : Lossless
Stream size : 51.3 KiB (0%)
Title : ENG Sub (Lonely Hikikomori)
Language : English
Default : No
Forced : No



หมายเหตุ ทุกเว็บโหลดแทนกันได้ แต่ต้องเปลี่ยนชื่อให้เรียงกันด้วย


สำหรับสมาชิก VIP เท่านั้น!

[restrict …]

|——————————————————————|

|——————————————————————|

[/restrict]

%d bloggers like this: