Home > VIP > [HDCAM] Pacific Rim: Uprising (2018) แปซิฟิค ริม ปฏิวัติพลิกโลก [พากย์ไทยโรง + อังกฤษ] [MKV] [ONE2UP]

[HDCAM] Pacific Rim: Uprising (2018) แปซิฟิค ริม ปฏิวัติพลิกโลก [พากย์ไทยโรง + อังกฤษ] [MKV] [ONE2UP]

[HDCAM] Pacific Rim: Uprising (2018) แปซิฟิค ริม ปฏิวัติพลิกโลก

Pacific.Rim.2.Uprising.2018.NEW.HDCAM.X264.HQMic.AC-3.THR2.0p[Load2up.com].mkv
Format : Matroska
Format version : Version 4 / Version 2
File size : 1.67 GiB
Duration : 1 h 40 min
Overall bit rate mode : Variable
Overall bit rate : 2 385 kb/s
Movie name : P[email protected]CtHts
Encoded date : UTC 2018-03-24 11:45:40
Writing application : mkvmerge v9.9.0 (‘Pick Up’) 64bit
Writing library : libebml v1.3.4 + libmatroska v1.4.5
Cover : Yes
Attachments : cover.jpg

Video
ID : 1
Format : AVC
Format/Info : Advanced Video Codec
Format profile : [email protected]
Format settings, CABAC : Yes
Format settings, ReFrames : 5 frames
Codec ID : V_MPEG4/ISO/AVC
Duration : 1 h 40 min
Bit rate mode : Variable
Bit rate : 1 997 kb/s
Maximum bit rate : 62.5 Mb/s
Width : 720 pixels
Height : 320 pixels
Display aspect ratio : 2.25:1
Frame rate mode : Constant
Frame rate : 29.970 (30000/1001) FPS
Color space : YUV
Chroma subsampling : 4:2:0
Bit depth : 8 bits
Scan type : Progressive
Bits/(Pixel*Frame) : 0.289
Stream size : 1.40 GiB (84%)
Title : P[email protected]CtHts
Language : English
Default : Yes
Forced : No
Color range : Full
Color primaries : BT.709
Transfer characteristics : BT.709
Matrix coefficients : BT.709

Audio #1
ID : 2
Format : AC-3
Format/Info : Audio Coding 3
Format settings, Endianness : Big
Codec ID : A_AC3
Duration : 1 h 40 min
Bit rate mode : Constant
Bit rate : 192 kb/s
Channel(s) : 2 channels
Channel positions : Front: L R
Sampling rate : 48.0 kHz
Frame rate : 31.250 FPS (1536 spf)
Bit depth : 16 bits
Compression mode : Lossy
Stream size : 137 MiB (8%)
Title : THR 2.0 Modified By ~Mr.Captain~
Language : Thai
Service kind : Complete Main
Default : Yes
Forced : No

Audio #2
ID : 3
Format : MPEG Audio
Format version : Version 1
Format profile : Layer 3
Codec ID : A_MPEG/L3
Codec ID/Hint : MP3
Duration : 1 h 40 min
Bit rate mode : Constant
Bit rate : 192 kb/s
Channel(s) : 2 channels
Sampling rate : 44.1 kHz
Frame rate : 38.281 FPS (1152 spf)
Compression mode : Lossy
Delay relative to video : 13 ms
Stream size : 137 MiB (8%)
Title : English 2.0
Writing library : LAME
Language : English
Default : No
Forced : No



หมายเหตุ ทุกเว็บโหลดแทนกันได้ แต่ต้องเปลี่ยนชื่อให้เรียงกันด้วย

สำหรับสมาชิก VIP เท่านั้น!

[restrict …]

|——————————————————————|

|——————————————————————|

[/restrict]

%d bloggers like this: