Home > VIP > (HD-CAM) Atomic Blonde (2017) บลอนด์ สวยกระจุย [พากย์ไทยโรง + อังกฤษ 2.0] [ONE2UP] [Filefenix]

(HD-CAM) Atomic Blonde (2017) บลอนด์ สวยกระจุย [พากย์ไทยโรง + อังกฤษ 2.0] [ONE2UP] [Filefenix]

(HD-CAM) Atomic Blonde (2017) บลอนด์ สวยกระจุย

Atomic Blonde ลอเรน โบรห์ตัน (Lorraine Broughton) สายลับสาว MI6 ได้ถูกส่งตัวไปทำภารกิจที่เยอรมันในช่วงที่กำแพงเบอร์ลินกำลังจะล่มสลายในปี 1989 ซึ่งเธอจะต้องร่วมมือกับ เดวิด เพอร์ซิวาล(David Percival) สายลับอีกคนที่รับบทโดย เจมส์ แม็คอวอย (James McAvoy) เพื่อสืบหาว่าใครสังหารสายลับ MI6 ที่น่าจะมีการเกี่ยวพันบางอย่างกับตัวของลอเรน

Atomic.Blond.2017.HD-TS.x264.ThaiRong[Load2up.com].mkv
Format : Matroska
Format version : Version 4 / Version 2
File size : 2.13 GiB
Duration : 1 h 48 min
Overall bit rate mode : Variable
Overall bit rate : 2 818 kb/s
Movie name : Atomic.Blond.2017.HD-TS.x264.ThaiRong
Encoded date : UTC 2017-08-04 16:57:32
Writing application : mkvmerge v9.9.0 (‘Pick Up’) 64bit
Writing library : libebml v1.3.4 + libmatroska v1.4.5

Video
ID : 1
Format : AVC
Format/Info : Advanced Video Codec
Format profile : [email protected]
Format settings, CABAC : Yes
Format settings, ReFrames : 5 frames
Codec ID : V_MPEG4/ISO/AVC
Duration : 1 h 48 min
Bit rate mode : Variable
Bit rate : 2 494 kb/s
Maximum bit rate : 62.5 Mb/s
Width : 710 pixels
Height : 304 pixels
Display aspect ratio : 2.35:1
Frame rate mode : Constant
Frame rate : 60.000 FPS
Color space : YUV
Chroma subsampling : 4:2:0
Bit depth : 8 bits
Scan type : Progressive
Bits/(Pixel*Frame) : 0.193
Stream size : 1.89 GiB (88%)
Title : Atomic.Blond.2017.HD-TS.x264.ThaiRong
Language : English
Default : Yes
Forced : No
Color range : Limited
Color primaries : BT.709
Transfer characteristics : BT.709
Matrix coefficients : BT.709

Audio #1
ID : 2
Format : AC-3
Format/Info : Audio Coding 3
Format settings, Endianness : Big
Codec ID : A_AC3
Duration : 1 h 48 min
Bit rate mode : Constant
Bit rate : 192 kb/s
Channel(s) : 2 channels
Channel positions : Front: L R
Sampling rate : 48.0 kHz
Frame rate : 31.250 FPS (1536 spf)
Bit depth : 16 bits
Compression mode : Lossy
Stream size : 149 MiB (7%)
Title : ThaiRong 2.0 (AC-3)
Language : Thai
Service kind : Complete Main
Default : Yes
Forced : Yes

Audio #2
ID : 3
Format : MPEG Audio
Format version : Version 1
Format profile : Layer 3
Codec ID : A_MPEG/L3
Codec ID/Hint : MP3
Duration : 1 h 48 min
Bit rate mode : Constant
Bit rate : 128 kb/s
Channel(s) : 2 channels
Sampling rate : 44.1 kHz
Frame rate : 38.281 FPS (1152 spf)
Compression mode : Lossy
Delay relative to video : 18 ms
Stream size : 99.1 MiB (5%)
Title : English 2.0 (Mp3)
Language : English
Default : No
Forced : No



หมายเหตุ ทุกเว็บโหลดแทนกันได้ แต่ต้องเปลี่ยนชื่อให้เรียงกันด้วย

Cloud2free

สำหรับสมาชิก VIP เท่านั้น!

[restrict …]

|——————————————————————|

|——————————————————————|

[/restrict]

%d bloggers like this: