Home > Mini-HD > [หนังซูม] [720P] The House with a Clock in its Walls (2018) บ้านเวทมนตร์และนาฬิกาอาถรรพ์ [พากย์ไทยโรง 2.0 + เสียงอังกฤษ 2.0] [MKV] [ONE2UP]

[หนังซูม] [720P] The House with a Clock in its Walls (2018) บ้านเวทมนตร์และนาฬิกาอาถรรพ์ [พากย์ไทยโรง 2.0 + เสียงอังกฤษ 2.0] [MKV] [ONE2UP]

[หนังซูม] [720P] The House with a Clock in its Walls (2018) บ้านเวทมนตร์และนาฬิกาอาถรรพ์

The.House.with.a.Clock.in.Its.Walls.2018.720p.HDCAM.x264.AC3.THR2.0[Load2up.com].mkv
Format : Matroska
Format version : Version 4 / Version 2
File size : 2.58 GiB
Duration : 1 h 38 min
Overall bit rate mode : Variable
Overall bit rate : 3 735 kb/s
Encoded date : UTC 2018-10-07 02:56:46
Writing application : mkvmerge v25.0.0 (‘Prog Noir’) 64-bit
Writing library : libebml v1.3.6 + libmatroska v1.4.9

Video
ID : 1
Format : AVC
Format/Info : Advanced Video Codec
Format profile : [email protected]
Format settings, CABAC : Yes
Format settings, ReFrames : 6 frames
Codec ID : V_MPEG4/ISO/AVC
Duration : 1 h 38 min
Bit rate mode : Variable
Bit rate : 3 312 kb/s
Maximum bit rate : 18.0 Mb/s
Width : 1 280 pixels
Height : 536 pixels
Display aspect ratio : 2.40:1
Frame rate mode : Constant
Frame rate : 29.970 (30000/1001) FPS
Standard : Component
Color space : YUV
Chroma subsampling : 4:2:0
Bit depth : 8 bits
Scan type : Progressive
Bits/(Pixel*Frame) : 0.161
Stream size : 2.29 GiB (89%)
Title : The.House.with.a.Clock.in.Its.Walls.2018.720p.HDCAM.x264.AC3.THR2.0_
Writing library : x264 core 148
Default : Yes
Forced : No
Color range : Limited
Color primaries : BT.709
Transfer characteristics : BT.709
Matrix coefficients : BT.709

Audio #1
ID : 2
Format : AC-3
Format/Info : Audio Coding 3
Format settings, Endianness : Big
Codec ID : A_AC3
Duration : 1 h 38 min
Bit rate mode : Constant
Bit rate : 192 kb/s
Channel(s) : 2 channels
Channel positions : Front: L R
Sampling rate : 48.0 kHz
Frame rate : 31.250 FPS (1536 spf)
Bit depth : 16 bits
Compression mode : Lossy
Stream size : 136 MiB (5%)
Title : Thai Rong 2.0
Language : Thai
Service kind : Complete Main
Default : Yes
Forced : No

Audio #2
ID : 3
Format : AC-3
Format/Info : Audio Coding 3
Format settings, Endianness : Big
Codec ID : A_AC3
Duration : 1 h 38 min
Bit rate mode : Constant
Bit rate : 224 kb/s
Channel(s) : 2 channels
Channel positions : Front: L R
Sampling rate : 48.0 kHz
Frame rate : 31.250 FPS (1536 spf)
Bit depth : 16 bits
Compression mode : Lossy
Stream size : 158 MiB (6%)
Title : English 2.0
Language : English
Service kind : Complete Main
Default : No
Forced : No



หมายเหตุ ทุกเว็บโหลดแทนกันได้ แต่ต้องเปลี่ยนชื่อให้เรียงกันด้วย

สำหรับสมาชิก VIP เท่านั้น!

[restrict …]

|——————————————————————|

|——————————————————————|

[/restrict]

%d bloggers like this: