Home > VIP > [ชนโรง] Tomb Raider (2018) ทูม เรเดอร์ [พากย์ไทยโรง 2.0 + เสียงอังกฤษ 2.0] [MKV] [ONE2UP]

[ชนโรง] Tomb Raider (2018) ทูม เรเดอร์ [พากย์ไทยโรง 2.0 + เสียงอังกฤษ 2.0] [MKV] [ONE2UP]

[ชนโรง] Tomb Raider (2018) ทูม เรเดอร์

Tomb Raider ลาร่า ครอฟท์ คือลูกสาวผู้รักในอิสระอย่างแรงกล้าของนักแสวงโชคผู้ สาปสูญไปในตอนที่เธอยังเป็นเพียงวัยรุ่น และตอนนี้หญิงสาววัย 21 ผู้ไร้ซึ่งเป้าหมายหรือความฝันในชีวิต ลาร่า ได้สังเกตเห็นความวุ่นวายที่ถนนสายหนึ่งในย่านแฟชั่น ของลอนดอนตะวันออก

ในฐานะเด็กส่งของผู้มีชีวิตอย่างยากลำบาก ไม่ว่าจะเป็นการกู้สินเชื่อ การเข้าเรียนมหาวิทยาลัย และเข้าเรียนให้ทันเวลาได้น้อยครั้ง เธอตัดสินใจจะสร้างเส้นทางชีวิตของตนเอง หญิงสาวปฏิเสธการเข้ารับตำแหน่งประจำสหราชอาณาจักรต่ อจากพ่อเธอ เพียงเพื่อเป็นการยืนกรานในความคิดของตนเองว่าพ่อของ เธอยังไม่จากไปไหน แม้ว่าจะได้รับคำแนะนำให้ยอมรับความเป็นจริง ที่ว่าเธอต้องยืนหยัดด้วยขาของตนเองมาตลอดเจ็ดปีโดยไ ม่มีพ่อก็ตาม และแม้แต่เจ้าตัวก็ยังไม่เข้าใจ ว่าอะไรทำให้เธอตัดสินใจที่จะไขปริศนาการตายของพ่อได ้

เพื่อรับรู้ความปรารถนาสุดท้ายของพ่อ เธอตัดสินใจละทิ้งทุกสิ่งที่เธอมีไว้ด้านหลัง และเริ่มค้นหาเป้าจุดมุ่งหมายสุดท้ายของพ่อเธอ: สุสานในนิทาน ที่อยู่บนเกาะลึกลับที่ไหนสักแห่งแถวชายฝั่งประเทศญี ่ปุ่น แต่ภารกิจของเธอไม่ง่ายถึงเพียงนั้น แค่การไปถึงเกาะก็เต็มไปด้วยการทรยศหลอกลวง และทันใดนั้น เธอก็เสี่ยงจนถึงขีดสุด เมื่อต้องรับมือกับภยันตรายและอาวุธต่างๆอย่างยากลำบ าก ด้วยเพียงจิตใจอันแข็งแกร่ง โชคชะตาอันมืดบอด และจิตวิญญาณอันไม่ยอมแพ้เท่านั้น เธอต้องเรียนรู้ที่จะผลักดันตัวเองไปให้มากกว่าขีดจำ กัด เมื่อการเดินทางในครั้งนี้ นำพาไปสู่การผจญภัยอันเหลือเชื่อ ที่นำพาชื่อ “”ทูม เรเดอร์”” มาให้เธอนั่นเอง

Tomb.Raider.2018.NEW.TS.XViD.AC-3.THR2.0[Load2up.com].mkv
Format : Matroska
Format version : Version 4 / Version 2
File size : 1.39 GiB
Duration : 1 h 48 min
Overall bit rate : 1 832 kb/s
Movie name : Tomb.Raider.2018.NEW.TS.XViD.AC-3.THR2.0
Encoded date : UTC 2018-03-21 16:16:24
Writing application : mkvmerge v9.9.0 (‘Pick Up’) 64bit
Writing library : libebml v1.3.4 + libmatroska v1.4.5
Cover : Yes
Attachments : cover.jpg

Video
ID : 1
Format : MPEG-4 Visual
Format profile : Advanced [email protected]
Format settings, BVOP : 2
Format settings, QPel : No
Format settings, GMC : No warppoints
Format settings, Matrix : Default (H.263)
Muxing mode : Packed bitstream
Codec ID : V_MS/VFW/FOURCC / XVID
Codec ID/Hint : XviD
Duration : 1 h 48 min
Bit rate : 1 509 kb/s
Width : 720 pixels
Height : 280 pixels
Display aspect ratio : 2.571
Frame rate mode : Constant
Frame rate : 30.000 FPS
Color space : YUV
Chroma subsampling : 4:2:0
Bit depth : 8 bits
Scan type : Progressive
Compression mode : Lossy
Bits/(Pixel*Frame) : 0.249
Stream size : 1.15 GiB (82%)
Title : Tomb.Raider.2018.NEW.TS.XViD.AC-3.THR2.0
Writing library : XviD 65
Language : English
Default : Yes
Forced : No

Audio #1
ID : 2
Format : AC-3
Format/Info : Audio Coding 3
Format settings, Endianness : Big
Codec ID : A_AC3
Duration : 1 h 48 min
Bit rate mode : Constant
Bit rate : 192 kb/s
Channel(s) : 2 channels
Channel positions : Front: L R
Sampling rate : 48.0 kHz
Frame rate : 31.250 FPS (1536 spf)
Bit depth : 16 bits
Compression mode : Lossy
Stream size : 149 MiB (10%)
Title : THR 2.0 Modified By ~Mr.Captain~
Language : Thai
Service kind : Complete Main
Default : Yes
Forced : No

Audio #2
ID : 3
Format : AC-3
Format/Info : Audio Coding 3
Format settings, Endianness : Big
Codec ID : A_AC3
Duration : 1 h 48 min
Bit rate mode : Constant
Bit rate : 128 kb/s
Channel(s) : 2 channels
Channel positions : Front: L R
Sampling rate : 48.0 kHz
Frame rate : 31.250 FPS (1536 spf)
Bit depth : 16 bits
Compression mode : Lossy
Delay relative to video : 31 ms
Stream size : 99.5 MiB (7%)
Title : English 2.0
Language : English
Service kind : Complete Main
Default : No
Forced : No



หมายเหตุ ทุกเว็บโหลดแทนกันได้ แต่ต้องเปลี่ยนชื่อให้เรียงกันด้วย

สำหรับสมาชิก VIP เท่านั้น!

[restrict …]

|——————————————————————|

|——————————————————————|

[/restrict]

%d bloggers like this: