Home > VIP > [ชนโรง] [720p] Fifty Shades Freed (2018) ฟิฟตี้เชดส์ฟรีด [พากย์ไทยโรง 2.0 + อังกฤษ 2.0] [MKV] [ONE2UP]

[ชนโรง] [720p] Fifty Shades Freed (2018) ฟิฟตี้เชดส์ฟรีด [พากย์ไทยโรง 2.0 + อังกฤษ 2.0] [MKV] [ONE2UP]

[ชนโรง] [720p] Fifty Shades Freed (2018) ฟิฟตี้เชดส์ฟรีด

ฟิฟตี้เชดส์ฟรีด เรื่องราวต่อจากภาคแรก คริสเตียน เกรย์ ผู้บอบช้ำจากความรัก พยายามตามง้อแอนัสเตเชีย สตีล ให้กลับมาคืนดีกับเขา ก่อนที่เธอจะให้โอกาสเขาอีกครั้ง แอนัสเตเชียก็ยื่นข้อตกลงใหม่ให้กับเขา จากนั้น ทั้งคู่เริ่มสร้างความไว้เนื้อเชื่อใจและความมั่นคงในชีวิต แต่ก็ต้องเผชิญกับอดีตของคริสเตียน เกรย์ ที่ตามมาทำลายความหวังที่จะสร้างอนาคตร่วมกัน

Fifty.Shades.Freed.2018.720p.HDCAM.X264.THR2.0[load2up.com].mkv
Format : Matroska
Format version : Version 4 / Version 2
File size : 3.57 GiB
Duration : 1 h 32 min
Overall bit rate : 5 558 kb/s
Movie name : Fifty.Shades.Freed.2018.720p.HDCAM.X264.THR2.0
Encoded date : UTC 2018-02-12 03:41:12
Writing application : mkvmerge v9.9.0 (‘Pick Up’) 64bit
Writing library : libebml v1.3.4 + libmatroska v1.4.5
Cover : Yes
Attachments : cover2.jpg

Video
ID : 1
Format : AVC
Format/Info : Advanced Video Codec
Format profile : [email protected]
Format settings, CABAC : No
Format settings, ReFrames : 1 frame
Codec ID : V_MPEG4/ISO/AVC
Duration : 1 h 32 min
Bit rate : 5 171 kb/s
Width : 1 280 pixels
Height : 720 pixels
Display aspect ratio : 16:9
Frame rate mode : Constant
Frame rate : 29.970 FPS
Original frame rate : 29.000 FPS
Color space : YUV
Chroma subsampling : 4:2:0
Bit depth : 8 bits
Scan type : Progressive
Bits/(Pixel*Frame) : 0.187
Stream size : 3.32 GiB (93%)
Title : Fifty.Shades.Freed.2018.720p.HDCAM.X264.THR2.0
Language : English
Default : Yes
Forced : No

Audio #1
ID : 2
Format : AC-3
Format/Info : Audio Coding 3
Format settings, Endianness : Big
Codec ID : A_AC3
Duration : 1 h 32 min
Bit rate mode : Constant
Bit rate : 192 kb/s
Channel(s) : 2 channels
Channel positions : Front: L R
Sampling rate : 48.0 kHz
Frame rate : 31.250 FPS (1536 spf)
Bit depth : 16 bits
Compression mode : Lossy
Delay relative to video : -154 ms
Stream size : 126 MiB (3%)
Title : THR 2.0
Language : Thai
Service kind : Complete Main
Default : Yes
Forced : No

Audio #2
ID : 3
Format : AC-3
Format/Info : Audio Coding 3
Format settings, Endianness : Big
Codec ID : A_AC3
Duration : 1 h 32 min
Bit rate mode : Constant
Bit rate : 192 kb/s
Channel(s) : 2 channels
Channel positions : Front: L R
Sampling rate : 48.0 kHz
Frame rate : 31.250 FPS (1536 spf)
Bit depth : 16 bits
Compression mode : Lossy
Delay relative to video : -154 ms
Stream size : 126 MiB (3%)
Title : English 2.0
Language : English
Service kind : Complete Main
Default : No
Forced : No



หมายเหตุ ทุกเว็บโหลดแทนกันได้ แต่ต้องเปลี่ยนชื่อให้เรียงกันด้วย

สำหรับสมาชิก VIP เท่านั้น!

[restrict …]

|——————————————————————|

|——————————————————————|

[/restrict]

%d bloggers like this: