Home > VIP > [ชนโรง] [720p] Den of Thieves (2018) โคตรนรกปล้นเหนือเมฆ [พากย์ไทยโรง 2.0 + อังกฤษ 2.0] [MKV] [ONE2UP]

[ชนโรง] [720p] Den of Thieves (2018) โคตรนรกปล้นเหนือเมฆ [พากย์ไทยโรง 2.0 + อังกฤษ 2.0] [MKV] [ONE2UP]

[ชนโรง] [720p] Den of Thieves (2018) โคตรนรกปล้นเหนือเมฆ

Den.of.Thieves.2018.720p.HD-TS.X264.THR2.0[load2up.com]_3.mkv
Format : Matroska
Format version : Version 4 / Version 2
File size : 3.21 GiB
Duration : 2 h 16 min
Overall bit rate mode : Variable
Overall bit rate : 3 379 kb/s
Movie name : [email protected]
Encoded date : UTC 2018-02-11 11:10:53
Writing application : mkvmerge v9.9.0 (‘Pick Up’) 64bit
Writing library : libebml v1.3.4 + libmatroska v1.4.5
Cover : Yes
Attachments : cover.jpg

Video
ID : 1
Format : AVC
Format/Info : Advanced Video Codec
Format profile : [email protected]
Format settings, CABAC : Yes
Format settings, ReFrames : 3 frames
Codec ID : V_MPEG4/ISO/AVC
Duration : 2 h 16 min
Bit rate mode : Variable
Bit rate : 3 000 kb/s
Maximum bit rate : 62.5 Mb/s
Width : 1 264 pixels
Height : 544 pixels
Display aspect ratio : 2.35:1
Frame rate mode : Constant
Frame rate : 30.000 FPS
Color space : YUV
Chroma subsampling : 4:2:0
Bit depth : 8 bits
Scan type : Progressive
Bits/(Pixel*Frame) : 0.145
Stream size : 2.84 GiB (89%)
Title : Den.of.Thieves.2018.720p.HD-TS.X264.THR2.0
Writing library : x264 core 148 r2638 7599210
Language : English
Default : Yes
Forced : No
Color range : Full
Color primaries : BT.709
Transfer characteristics : BT.709
Matrix coefficients : BT.709

Audio #1
ID : 2
Format : AC-3
Format/Info : Audio Coding 3
Format settings, Endianness : Big
Codec ID : A_AC3
Duration : 2 h 16 min
Bit rate mode : Constant
Bit rate : 192 kb/s
Channel(s) : 2 channels
Channel positions : Front: L R
Sampling rate : 48.0 kHz
Frame rate : 31.250 FPS (1536 spf)
Bit depth : 16 bits
Compression mode : Lossy
Stream size : 187 MiB (6%)
Title : THR 2.0 By ~Mr.Captain~
Language : Thai
Service kind : Complete Main
Default : Yes
Forced : No

Audio #2
ID : 3
Format : MPEG Audio
Format version : Version 1
Format profile : Layer 3
Codec ID : A_MPEG/L3
Codec ID/Hint : MP3
Duration : 2 h 16 min
Bit rate mode : Constant
Bit rate : 192 kb/s
Channel(s) : 2 channels
Sampling rate : 44.1 kHz
Frame rate : 38.281 FPS (1152 spf)
Compression mode : Lossy
Delay relative to video : 9 ms
Stream size : 187 MiB (6%)
Title : English 2.0
Writing library : LAME3.99.5
Language : English
Default : No
Forced : No



หมายเหตุ ทุกเว็บโหลดแทนกันได้ แต่ต้องเปลี่ยนชื่อให้เรียงกันด้วย

สำหรับสมาชิก VIP เท่านั้น!

[restrict …]

|——————————————————————|

|——————————————————————|

[/restrict]

%d bloggers like this: