[MINI-HD 1080P] Xuan Zang (2016) เสวียนจ้าง บุรุษพุทธานุภาพ [พากย์ไทย 5.1 + จีน DTS] [บรรยายไทย + อังกฤษ] [MASTER] [MKV] [ONE2UP]

[MINI-HD 1080P] Xuan Zang (2016) เสวียนจ้าง บุรุษพุทธานุภาพ

Xuan Zang หรือชื่อไทยว่า เสวียนจ้าง บุรุษพุทธานุภาพ Xuan Zang บอกเล่าเรื่องจริงของหนึ่งในการเดินทางยิ่งใหญ่ที่สุดครั้งหนึ่งของโลก เป็นการเดินทางของพระนามว่า ฉวนซาง (หรือพระถังซัมจั๋ง) ที่เดินทางไกลเป็นระยะทางกว่า 6,900 กิโลเมตร นานถึง 4 ปี จากนครหลวงฉางอัน ของราชวงศ์ถัง สู่สถานที่ที่ปัจจุบันคือประเทศอินเดีย เพื่อเก็บรวบรวมพระไตรปิฏกแห่งศาสนาพุทธ และนำกลับมายังประเทศจีน เรื่องราวตำนานอันโด่งดังของเห้งเจีย ใน Journey to the West ก็คือการนำเอาการเดินทางของพระฉวนซางมาจินตนาการใหม่ แต่เรื่องราวตามความเป็นจริงนั้นกลับยิ่งมหัศจรรย์ ในปีที่ 3 ของฮ่องเต้เฉินกวน แห่งราชวงศ์ถัง ปีค.ศ. 629 พุทธศาสนาเบ่งบานไปทั่ว แต่ถึงกระนั้นก็ยังขาดซึ่งพระคัมภีร์ต้นฉบับ และมีการแปลที่ขัดแย้งกันมากมาย จนไม่มีใครแน่ใจได้ว่าเส้นทางปฏิบัติใดคือของจริง ฉวนซาง พระหนุ่มในวัย 27 ปี ฝ่าฝืนราชโองการของฮ่องเต้ที่ห้ามคนเดินทางไปยังทิศตะวันตก เขาออกเดินทางเพียงลำพังจากนครฉางอัน เมืองหลวงของราชวงศ์ถัง เพื่อมุ่งหน้าไปยังถิ่นกำเนิดของพุทธศาสนาการเดินทางนำเขาข้ามผ่านเทือกเขาที่แห้งแล้ง จนถึงทะเลทรายเวิ้งว้างกว้างใหญ่ ฉวนซางที่ไม่มีน้ำดื่มติดตัว ต้องเผชิญกับขีดจำกัดของมนุษย์ที่จะอดทนได้เขาเกือบตาย และในทุกการเดินทางและในทุกเมืองที่เขาเดินทางผ่าน ล้วนแต่มีหมายประกาศจับตัวเขา ศรัทธาเท่านั้นที่ทำให้เขาผ่านพ้นความยากลำบากนั้นมาได้ และยังทำให้คนที่ควรจะจับตัวเขาเอาไว้ กลับปล่อยเขาไปในที่สุด เขาไปถึงวัดนาลันทา ซึ่งเป็นวัดที่สำคัญที่สุดในสมัยนั้น เขาใช้เวลาอยู่ที่นั่นห้าปี ศึกษาธรรมกับพระผู้ใหญ่ ศีลภัทร์ ฉวนซางเดินทางไปทั่ว และสามารถเอาชนะการวิวาทะทางธรรมที่โด่งดังที่สุดที่เคยเกิดขึ้นในประวัติศาสตร์พุทธศาสนา หลังจากจากบ้านเกิดไปนาน 19 ปี ในปี 645 ฉวนซางเดินทางกลับถึงฉางอัน พร้อมกับสิ่งสักการะ รูปปั้น และพระสูตรนับร้อย เพื่อสืบสานอนาคตของพระพุทธศาสนาในบ้านเกิดต่อไป!!!

{MINI Super-HQ}_Xuan.Zang.2016.1080p.BrRip.DTS.x264[Load2up.com].mkv
Format : Matroska
Format version : Version 4 / Version 2
File size : 3.85 GiB
Duration : 1 h 59 min
Overall bit rate : 4 593 kb/s
Movie name : {MINI Super-HQ}_Xuan.Zang.2016.1080p.BrRip.DTS.x264
Encoded date : UTC 2010-02-22 21:41:31
Writing application : mkvmerge v5.9.0 (‘On The Loose’) built on Dec 9 2012 15:37:01
Writing library : libebml v1.3.0 + libmatroska v1.4.0

Video
ID : 1
Format : AVC
Format/Info : Advanced Video Codec
Format profile : High@L4
Format settings, CABAC : Yes
Format settings, ReFrames : 4 frames
Codec ID : V_MPEG4/ISO/AVC
Duration : 1 h 59 min
Bit rate : 3 443 kb/s
Width : 1 920 pixels
Height : 724 pixels
Display aspect ratio : 2.652
Frame rate mode : Constant
Frame rate : 24.000 FPS
Color space : YUV
Chroma subsampling : 4:2:0
Bit depth : 8 bits
Scan type : Progressive
Bits/(Pixel*Frame) : 0.103
Stream size : 2.82 GiB (73%)
Title : {MINI Super-HQ}_Xuan.Zang.2016.1080p.BrRip.DTS.x264
Writing library : x264 core 130 r2273 b3065e6
Language : Chinese
Default : Yes
Forced : No
Color range : Limited
Color primaries : BT.709
Transfer characteristics : BT.709
Matrix coefficients : BT.709

Audio #1
ID : 2
Format : AC-3
Format/Info : Audio Coding 3
Mode extension : CM (complete main)
Format settings, Endianness : Big
Codec ID : A_AC3
Duration : 1 h 59 min
Bit rate mode : Constant
Bit rate : 384 kb/s
Channel(s) : 6 channels
Channel positions : Front: L C R, Side: L R, LFE
Sampling rate : 48.0 kHz
Frame rate : 31.250 FPS (1536 spf)
Bit depth : 16 bits
Compression mode : Lossy
Stream size : 329 MiB (8%)
Title : Thai Master
Language : Thai
Default : Yes
Forced : Yes

Audio #2
ID : 3
Format : DTS
Format/Info : Digital Theater Systems
Mode : 16
Format settings, Endianness : Big
Codec ID : A_DTS
Duration : 1 h 59 min
Bit rate mode : Constant
Bit rate : 755 kb/s
Channel(s) : 6 channels
Channel positions : Front: L C R, Side: L R, LFE
Sampling rate : 48.0 kHz
Frame rate : 93.750 FPS (512 spf)
Bit depth : 24 bits
Compression mode : Lossy
Stream size : 647 MiB (16%)
Title : Chinese DTS
Language : Chinese
Default : No
Forced : No

Text #1
ID : 4
Format : VobSub
Codec ID : S_VOBSUB
Codec ID/Info : Picture based subtitle format used on DVDs
Language : Thai
Default : No
Forced : No

Text #2
ID : 5
Format : VobSub
Codec ID : S_VOBSUB
Codec ID/Info : Picture based subtitle format used on DVDs
Language : English
Default : No
Forced : No



หมายเหตุ ทุกเว็บโหลดแทนกันได้ แต่ต้องเปลี่ยนชื่อให้เรียงกันด้วย

สำหรับสมาชิก VIP เท่านั้น!

%d bloggers like this: