[MINI-HD 1080P] Valerian and the City of a Thousand Planets (2017) วาเลเรียน พลิกจักรวาล [พากย์ไทย DTS + อังกฤษ DTS] [ซับไทย + อังกฤษ] [MASTER] [MKV] [ONE2UP]

[MINI-HD 1080P] Valerian and the City of a Thousand Planets (2017) วาเลเรียน พลิกจักรวาล

Valerian มหึมาภาพยนตร์แอคชั่น-ไซไฟฟอร์มยักษ์ทุนสร้างกว่า 170 ล้านเหรียญฯ “Valerian and the City of a Thousand Planets” (วาเลอเรี่ยน แอนด์ เดอะ ซิตี้ ออฟ อะ ทาวเซนด์แพลเน็ตส์) ที่สร้างจากงานไซไฟคอมมิคส์อันดับหนึ่งของ บอกเล่าถึงเรื่องราวของ วาเลอเรี่ยน (เดน ดีฮาน) และ ลอเรลีน (คาร่า เดเลวีน) เป็นเจ้าหน้าที่ปฏิบัติการพิเศษขององค์การปกครองเขตแดนมนุษยชาติ พวกเขามีหน้าที่พิทักษ์สันติสุขให้กับประชาชนทั่วจักรวาลวันหนึ่งเมื่อพวกเขาได้รับคำสั่งจากผู้บัญชาการ อารุน ฟิลลิตต์ (ไคลฟ์ โอเว่น) ทั้งสองจึงต้องออกเดินทางไปยังมหานครอัลฟ่า ดินแดนสุดอัศจรรย์ใจกลางอวกาศที่มีสิ่งมีชีวิตเป็นหมื่นๆ สปีชีส์จากทั่วทุกมุมจักรวาลอาศัยอยู่ร่วมกัน แต่โชคไม่ดีนักที่มีหายนะกำลังแฝงตัวคืบคลานอยู่ในความมืด และกำลังจ้องจะทำลายเผ่าพันธุ์มนุษย์ให้หมดสิ้น วาเลอเรี่ยนและลอเรลีนจึงต้องออกผจญภัยครั้งยิ่งใหญ่ ทะยานฝ่าสมรภูมิกาแลคซี่ เพื่อปกป้องนาคตของทุกเผ่าพันธุ์ไปพร้อมกัน

{MINI Super-HQ}_Valerian.and.the.City.of.a.Thousand.Planets.2017.1080p.BrRip.DTS.x264[load2up.com].mkv
Format : Matroska
Format version : Version 4 / Version 2
File size : 4.52 GiB
Duration : 2 h 17 min
Overall bit rate : 4 723 kb/s
Movie name : {MINI Super-HQ}_Valerian.and.th[email protected]CtHts
Encoded date : UTC 2010-02-22 21:41:31
Writing application : mkvmerge v5.9.0 (‘On The Loose’) built on Dec 9 2012 15:37:01
Writing library : libebml v1.3.0 + libmatroska v1.4.0

Video
ID : 1
Format : AVC
Format/Info : Advanced Video Codec
Format profile : [email protected]
Format settings, CABAC : Yes
Format settings, ReFrames : 4 frames
Codec ID : V_MPEG4/ISO/AVC
Duration : 2 h 17 min
Bit rate : 3 072 kb/s
Width : 1 920 pixels
Height : 804 pixels
Display aspect ratio : 2.40:1
Frame rate mode : Constant
Frame rate : 23.976 (24000/1001) FPS
Color space : YUV
Chroma subsampling : 4:2:0
Bit depth : 8 bits
Scan type : Progressive
Bits/(Pixel*Frame) : 0.083
Stream size : 2.99 GiB (66%)
Title : {MINI Super-HQ}_Valerian.and.th[email protected]CtHts
Writing library : x264 core 146 r2538 121396c
Encoding settings : cabac=1 / ref=5 / deblock=1:-3:-3 / analyse=0x3:0x133 / me=tesa / subme=11 / psy=1 / psy_rd=1.00:0.15 / mixed_ref=1 / me_range=48 / chroma_me=1 / trellis=2 / 8x8dct=1 / cqm=0 / deadzone=21,11 / fast_pskip=1 / chroma_qp_offset=-3 / threads=54 / lookahead_threads=4 / sliced_threads=0 / nr=0 / decimate=1 / interlaced=0 / bluray_compat=1 / constrained_intra=0 / bframes=3 / b_pyramid=1 / b_adapt=2 / b_bias=0 / direct=3 / weightb=1 / open_gop=0 / weightp=1 / keyint=250 / keyint_min=1 / scenecut=40 / intra_refresh=0 / rc_lookahead=60 / rc=2pass / mbtree=1 / bitrate=3072 / ratetol=1.0 / qcomp=0.60 / qpmin=0 / qpmax=69 / qpstep=4 / cplxblur=20.0 / qblur=0.5 / ip_ratio=1.40 / aq=1:1.30
Language : English
Default : Yes
Forced : No

Audio #1
ID : 2
Format : DTS
Format/Info : Digital Theater Systems
Mode : 16
Format settings, Endianness : Big
Codec ID : A_DTS
Duration : 2 h 17 min
Bit rate mode : Constant
Bit rate : 755 kb/s
Channel(s) : 6 channels
Channel positions : Front: L C R, Side: L R, LFE
Sampling rate : 48.0 kHz
Frame rate : 93.750 FPS (512 spf)
Bit depth : 24 bits
Compression mode : Lossy
Delay relative to video : 19 s 0 ms
Stream size : 740 MiB (16%)
Title : Thai DTS BluRay Master
Language : Thai
Default : Yes
Forced : Yes

Audio #2
ID : 3
Format : DTS
Format/Info : Digital Theater Systems
Mode : 16
Format settings, Endianness : Big
Codec ID : A_DTS
Duration : 2 h 17 min
Bit rate mode : Constant
Bit rate : 755 kb/s
Channel(s) : 6 channels
Channel positions : Front: L C R, Side: L R, LFE
Sampling rate : 48.0 kHz
Frame rate : 93.750 FPS (512 spf)
Bit depth : 24 bits
Compression mode : Lossy
Stream size : 740 MiB (16%)
Title : English DTS
Language : English
Default : No
Forced : No

Text #1
ID : 4
Format : VobSub
Codec ID : S_VOBSUB
Codec ID/Info : Picture based subtitle format used on DVDs
Language : Thai
Default : Yes
Forced : Yes

Text #2
ID : 5
Format : VobSub
Codec ID : S_VOBSUB
Codec ID/Info : Picture based subtitle format used on DVDs
Title : Thai 480p
Language : Thai
Default : No
Forced : No

Text #3
ID : 6
Format : VobSub
Codec ID : S_VOBSUB
Codec ID/Info : Picture based subtitle format used on DVDs
Title : Thai 720p
Language : Thai
Default : No
Forced : No

Text #4
ID : 7
Format : VobSub
Codec ID : S_VOBSUB
Codec ID/Info : Picture based subtitle format used on DVDs
Title : Thai 1080p
Language : Thai
Default : No
Forced : No

Text #5
ID : 8
Format : VobSub
Codec ID : S_VOBSUB
Codec ID/Info : Picture based subtitle format used on DVDs
Title : Thai 1080p Yellow
Language : Thai
Default : No
Forced : No

Text #6
ID : 9
Format : VobSub
Codec ID : S_VOBSUB
Codec ID/Info : Picture based subtitle format used on DVDs
Title : Thai 1080p Out
Language : Thai
Default : No
Forced : No

Text #7
ID : 10
Format : VobSub
Codec ID : S_VOBSUB
Codec ID/Info : Picture based subtitle format used on DVDs
Title : Thai 1080p BIG
Language : Thai
Default : No
Forced : No

Text #8
ID : 11
Format : PGS
Codec ID : S_HDMV/PGS
Codec ID/Info : Picture based subtitle format used on BDs/HD-DVDs
Title : Thai PGS BluRay Master
Language : Thai
Default : No
Forced : No

Text #9
ID : 12
Format : PGS
Codec ID : S_HDMV/PGS
Codec ID/Info : Picture based subtitle format used on BDs/HD-DVDs
Title : Thai PGS Out
Language : Thai
Default : No
Forced : No

Text #10
ID : 13
Format : PGS
Codec ID : S_HDMV/PGS
Codec ID/Info : Picture based subtitle format used on BDs/HD-DVDs
Title : English
Language : English
Default : No
Forced : No



หมายเหตุ ทุกเว็บโหลดแทนกันได้ แต่ต้องเปลี่ยนชื่อให้เรียงกันด้วย

สำหรับสมาชิก VIP เท่านั้น!

%d bloggers like this: