[MINI-HD 1080P] After the Storm (2016) รักได้มั้ย พ่อคนนี้ [พากย์ไทย + เสียงญี่ปุ่น] [บรรยาย ไทย] MASTER] [MKV] [FILEFENIX] [ONE2UP]

[MINI-HD 1080P] After the Storm (2016) รักได้มั้ย พ่อคนนี้

After the storm: พายุไต้ฝุ่นทำให้สมาชิกครอบครัวที่แตกสลาย กลับมารวมตัวกันอีกครั้งAfter the Storm หนังดราม่าเรื่องใหม่ของผู้กำกับ ฮิโรคาสุ โคเรเอดะ ที่ได้รับการคาดหมายว่าจะได้เข้าสายประกวดเทศกาลหนังเมืองคานส์ เช่นเดียวกับ Nobody Knows, Like Father, Like Son และ Our Little Sister เนื้อเรื่องพูดถึง นักเขียนตกอับที่หย่ากับภรรยา จนต้องไปรับจ้างเป็นนักสืบเอกชน เพื่อหาเงินมาส่งเสียให้ลูกชาย ความสุขอย่างเดียวของเขาคือ การได้เจอลูกเดือนละครั้ง

{MINI Super-HQ}_After.the.Storm.2016.1080p.BrRip.DTS.x264[load2up.com].mkv
Format : Matroska
Format version : Version 4 / Version 2
File size : 3.93 GiB
Duration : 1 h 57 min
Overall bit rate : 4 773 kb/s
Movie name : {MINI Super-HQ}_After.the.Storm.2016.1080p.BrRip.DTS.x264
Encoded date : UTC 2016-12-02 15:21:28
Writing application : mkvmerge v8.5.1 (‘Where you lead I will follow’) 64bit
Writing library : libebml v1.3.3 + libmatroska v1.4.4

Video
ID : 1
Format : AVC
Format/Info : Advanced Video Codec
Format profile : [email protected]
Format settings, CABAC : Yes
Format settings, ReFrames : 4 frames
Codec ID : V_MPEG4/ISO/AVC
Duration : 1 h 57 min
Bit rate : 3 435 kb/s
Width : 1 920 pixels
Height : 1 036 pixels
Display aspect ratio : 1.85:1
Frame rate mode : Constant
Frame rate : 23.976 (24000/1001) FPS
Color space : YUV
Chroma subsampling : 4:2:0
Bit depth : 8 bits
Scan type : Progressive
Bits/(Pixel*Frame) : 0.072
Stream size : 2.83 GiB (72%)
Title : {MINI Super-HQ}_After.the.Storm.2016.1080p.BrRip.DTS.x264
Writing library : x264 core 130 r2273 b3065e6
Language : Japanese
Default : Yes
Forced : No
Color range : Limited
Color primaries : BT.709
Transfer characteristics : BT.709
Matrix coefficients : BT.709

Audio #1
ID : 2
Format : AC-3
Format/Info : Audio Coding 3
Mode extension : CM (complete main)
Format settings, Endianness : Big
Codec ID : A_AC3
Duration : 1 h 57 min
Bit rate mode : Constant
Bit rate : 448 kb/s
Channel(s) : 6 channels
Channel positions : Front: L C R, Side: L R, LFE
Sampling rate : 48.0 kHz
Frame rate : 31.250 FPS (1536 spf)
Compression mode : Lossy
Stream size : 376 MiB (9%)
Title : Thai DVD Master
Language : Thai
Default : Yes
Forced : Yes

Audio #2
ID : 3
Format : DTS
Format/Info : Digital Theater Systems
Mode : 16
Format settings, Endianness : Big
Codec ID : A_DTS
Duration : 1 h 57 min
Bit rate mode : Constant
Bit rate : 768 kb/s
Channel(s) : 6 channels
Channel positions : Front: L C R, Side: L R, LFE
Sampling rate : 48.0 kHz
Frame rate : 93.750 FPS (512 spf)
Bit depth : 24 bits
Compression mode : Lossy
Stream size : 647 MiB (16%)
Title : Japanese DTS
Language : Japanese
Default : No
Forced : No

Text #1
ID : 4
Format : VobSub
Codec ID : S_VOBSUB
Codec ID/Info : Picture based subtitle format used on DVDs
Duration : 1 h 54 min
Bit rate : 3 202 b/s
Count of elements : 1475
Stream size : 2.61 MiB (0%)
Title : Thai 480p From DVD Master
Language : Thai
Default : No
Forced : No

Text #2
ID : 5
Format : VobSub
Codec ID : S_VOBSUB
Codec ID/Info : Picture based subtitle format used on DVDs
Duration : 1 h 54 min
Bit rate : 5 340 b/s
Count of elements : 1475
Stream size : 4.36 MiB (0%)
Title : Thai 720p
Language : Thai
Default : No
Forced : No

Text #3
ID : 6
Format : VobSub
Codec ID : S_VOBSUB
Codec ID/Info : Picture based subtitle format used on DVDs
Duration : 1 h 54 min
Bit rate : 9 776 b/s
Count of elements : 1475
Stream size : 7.98 MiB (0%)
Title : Thai 1080p
Language : Thai
Default : Yes
Forced : Yes

Text #4
ID : 7
Format : VobSub
Codec ID : S_VOBSUB
Codec ID/Info : Picture based subtitle format used on DVDs
Duration : 1 h 54 min
Bit rate : 9 759 b/s
Count of elements : 1475
Stream size : 7.97 MiB (0%)
Title : Thai 1080p Yellow
Language : Thai
Default : No
Forced : No

Text #5
ID : 8
Format : VobSub
Codec ID : S_VOBSUB
Codec ID/Info : Picture based subtitle format used on DVDs
Duration : 1 h 54 min
Bit rate : 13.5 kb/s
Count of elements : 1475
Stream size : 11.0 MiB (0%)
Title : Thai 1080p BIG
Language : Thai
Default : No
Forced : No

Text #6
ID : 9
Format : PGS
Codec ID : S_HDMV/PGS
Codec ID/Info : Picture based subtitle format used on BDs/HD-DVDs
Duration : 1 h 54 min
Bit rate : 41.1 kb/s
Count of elements : 2950
Stream size : 33.6 MiB (1%)
Title : Thai PGS
Language : Thai
Default : No
Forced : No

Text #7
ID : 10
Format : PGS
Codec ID : S_HDMV/PGS
Codec ID/Info : Picture based subtitle format used on BDs/HD-DVDs
Duration : 1 h 54 min
Bit rate : 41.2 kb/s
Count of elements : 2950
Stream size : 33.6 MiB (1%)
Title : Thai PGS Yellow
Language : Thai
Default : No
Forced : No



หมายเหตุ ทุกเว็บโหลดแทนกันได้ แต่ต้องเปลี่ยนชื่อให้เรียงกันด้วย


สำหรับสมาชิก VIP เท่านั้น!

[restrict …]

|——————————————————————|

|——————————————————————|

[/restrict]