[MINI-HD 1080P] The Accountant (2016) ดิ แอ็คเคาท์แทนต์ อัจฉริยะคนบัญชีเพชฌฆาต [พากย์ไทยโรง + อังกฤษ 2.0] [บรรยายเกาหลี] [MKV] [FILEFENIX] [ONE2UP]

[MINI-HD 1080P] The Accountant (2016) ดิ แอ็คเคาท์แทนต์ อัจฉริยะคนบัญชีเพชฌฆาต

กับเรื่องราวที่จะบอกเล่าเรื่องราวของนักบัญชีหนุ่มผู้อ่อนโยน (เบน แอฟเฟล็ค) คนหนึ่ง แต่ใครจะรู้ว่ายามค่ำคืนหนุ่มอ่อนโยนคนนี้จะรับจ้างเป็นนักฆ่าเดนตาย นำแสดงโดย เบน แอฟเฟล็ค, แอนนา เคนดริก,เอลิสัน ไรท์ , เจเค ซิมมอนส์ กำกับการแสดงโดย กาวิน โอ’คอนเนอร์ จากฝีมือการเขียนบทของ บิลล์ ดูบูก

The.Accountant.2016.1080p.KORSUB.HDRip.H264.AC3.THEATER[Load2up.com].mkv
Format : Matroska
Format version : Version 4 / Version 2
File size : 3.40 GiB
Duration : 2 h 7 min
Overall bit rate : 3 810 kb/s
Movie name : The.Accountant.2016.1080p.KORSUB.HDRip.H264.AC3.THEATER
Encoded date : UTC 2016-12-04 14:16:25
Writing application : mkvmerge v7.7.0 (‘Six Voices’) 32bit built on Feb 28 2015 23:23:00
Writing library : libebml v1.3.1 + libmatroska v1.4.2

Video
ID : 1
Format : AVC
Format/Info : Advanced Video Codec
Format profile : Baseline@L4
Format settings, CABAC : No
Format settings, ReFrames : 1 frame
Codec ID : V_MPEG4/ISO/AVC
Duration : 2 h 7 min
Bit rate : 3 500 kb/s
Width : 1 920 pixels
Height : 1 080 pixels
Display aspect ratio : 16:9
Frame rate mode : Constant
Frame rate : 29.970 (29970/1000) FPS
Color space : YUV
Chroma subsampling : 4:2:0
Bit depth : 8 bits
Scan type : Progressive
Bits/(Pixel*Frame) : 0.056
Stream size : 3.12 GiB (92%)
Title : The.Accountant.2016.1080p.KORSUB.HDRip.H264.AC3.THEATER
Writing library : x264 core 148 r2705 3f5ed56
Language : English
Default : Yes
Forced : Yes

Audio #1
ID : 2
Format : AC-3
Format/Info : Audio Coding 3
Mode extension : CM (complete main)
Format settings, Endianness : Big
Codec ID : A_AC3
Duration : 2 h 7 min
Bit rate mode : Constant
Bit rate : 192 kb/s
Channel(s) : 2 channels
Channel positions : Front: L R
Sampling rate : 48.0 kHz
Frame rate : 31.250 FPS (1536 spf)
Compression mode : Lossy
Stream size : 176 MiB (5%)
Title : TH AC3 THEATER
Language : Thai
Default : Yes
Forced : Yes

Audio #2
ID : 3
Format : AAC
Format/Info : Advanced Audio Codec
Format profile : LC
Codec ID : A_AAC
Duration : 2 h 7 min
Bit rate : 128 kb/s
Channel(s) : 2 channels
Channel positions : Front: L R
Sampling rate : 44.1 kHz
Frame rate : 43.066 FPS (1024 spf)
Compression mode : Lossy
Stream size : 117 MiB (3%)
Title : EN AAC
Language : English
Default : No
Forced : No



หมายเหตุ ทุกเว็บโหลดแทนกันได้ แต่ต้องเปลี่ยนชื่อให้เรียงกันด้วย


%d bloggers like this: