[MINI-HD 1080P] Kung-Fu Yoga (2017) โยคะสู้ฟัด [เสียงไทยโรง – จีน 2.0] [MKV] [ONE2UP] [Filefenix]

[MINI-HD 1080P] Kung-Fu Yoga (2017) โยคะสู้ฟัด

แจ็ค (เฉินหลง) ศาสตราจารย์โบราณคดี ชาวจีน ต้องมาร่วมกับ แอชมิตา ศาสตราจารย์สาวสุดสวยชาวอินเดีย และ ไคร่า ผู้ช่วยของเธอในการตามหาสมบัติที่ถ้ำน้ำแข็งในฐิเบต พวกเขาพบซากกองทัพหลวงที่สูญหายไปพร้อมกับสมบัติ แต่กลับถูกซุ่มโจมตีโดย แรนดัล (โซนู ซูด) ลูกหลานของผู้นำทัพกบฏ ที่ต้องการปลดแอกตัวเอง จุดหมายต่อไปขอพวกเขาอยู่ที่ดูไบ ที่เพรชเม็ดงามจากถ้ำน้ำแข็งถูกนำออกประมูล หลังจากผ่านการหักเหลี่ยมเฉือนคม ที่เปิดเผยอดีตอันลึกลับของแต่ละคนออกมา แจ็คและทีมเดินทางไปวัดบนภูเขาในอินเดียโดยใช้เพชรที่ได้มาเป็นกุญแจปลดล็อคสมบัติที่ไม่สามารถประเมินค่าได้

Kung-Fu Yoga (2017)[Modified]Thairong[Load2up.com].mkv
Format : Matroska
Format version : Version 4 / Version 2
File size : 2.63 GiB
Duration : 1 h 47 min
Overall bit rate : 3 507 kb/s
Movie name : Kung.Fu.Yoga.2017.CHINESE.1080p.WEBRip.x264.AAC2.0
Encoded date : UTC 2017-03-28 18:48:45
Writing application : mkvmerge v9.9.0 (‘Pick Up’) 64bit
Writing library : libebml v1.3.4 + libmatroska v1.4.5

Video
ID : 1
Format : AVC
Format/Info : Advanced Video Codec
Format profile : [email protected]
Format settings, CABAC : Yes
Format settings, ReFrames : 4 frames
Codec ID : V_MPEG4/ISO/AVC
Duration : 1 h 47 min
Bit rate : 3 089 kb/s
Width : 1 920 pixels
Height : 800 pixels
Display aspect ratio : 2.40:1
Frame rate mode : Constant
Frame rate : 24.000 FPS
Color space : YUV
Chroma subsampling : 4:2:0
Bit depth : 8 bits
Scan type : Progressive
Bits/(Pixel*Frame) : 0.084
Stream size : 2.31 GiB (88%)
Title : Kung.Fu.Yoga.2017.CHINESE.1080p.WEBRip.x264.AAC2.0
Language : Chinese
Default : Yes
Forced : No

Audio #1
ID : 2
Format : AC-3
Format/Info : Audio Coding 3
Mode extension : CM (complete main)
Format settings, Endianness : Big
Codec ID : A_AC3
Duration : 1 h 47 min
Bit rate mode : Constant
Bit rate : 192 kb/s
Channel(s) : 2 channels
Channel positions : Front: L R
Sampling rate : 48.0 kHz
Frame rate : 31.250 FPS (1536 spf)
Bit depth : 16 bits
Compression mode : Lossy
Delay relative to video : -126 ms
Stream size : 147 MiB (5%)
Title : Thai 2.0
Language : Thai
Default : Yes
Forced : No

Audio #2
ID : 3
Format : AAC
Format/Info : Advanced Audio Codec
Format profile : LC
Codec ID : A_AAC
Duration : 1 h 47 min
Bit rate : 224 kb/s
Channel(s) : 2 channels
Channel positions : Front: L R
Sampling rate : 48.0 kHz
Frame rate : 46.875 FPS (1024 spf)
Compression mode : Lossy
Delay relative to video : -126 ms
Stream size : 172 MiB (6%)
Title : Chinese 2.0
Language : Chinese
Default : No
Forced : Yes



หมายเหตุ ทุกเว็บโหลดแทนกันได้ แต่ต้องเปลี่ยนชื่อให้เรียงกันด้วย

สำหรับสมาชิก VIP เท่านั้น!

%d bloggers like this: