[MINI-HD 1080P] Kidnapping Mr Heineken (2015) เรียกค่าไถ่ ไฮเนเก้น [เสียงอังกฤษ 5.1 + พากย์ไทย 5.1] [บรรยายไทย + อังกฤษ] [MKV] [FILEFENIX] [ONE2UP]

[MINI-HD 1080P] Kidnapping Mr Heineken (2015) เรียกค่าไถ่ ไฮเนเก้น

ากคดีจับตัวเรียกค่าไถ่ที่เกิดขึ้นจริงในปี 1983 และได้รับความสนใจจากทุกสื่อ เพราะเหยื่อที่ผู้ร้ายใช้ในการต่อรองเงินก้อนโตนั้น คือ เจ้าพ่อยักษ์ใหญ่ของวงการเบียร์ – อัลเฟรด “เฟรดดี้” ไฮเนเก้น.. เจ้าของเบียร์ไฮเนเก้นที่ได้รับความนิยมไปทั่วโลก !

Kidnapping of Freddy Heineken ยังคงรายละเอียดและความสมจริงไว้ทุกประการ และมันก็โลดโผน หักมุม ทั้งยังตื่นเต้นแบบหนังอาชญากรรมชั้นเยี่ยม นักแสดงรางวัลออสการ์ แอนโธนี ฮ็อปกินส์ มารับบท เฟรดดี้ ไฮเนเก้น ผู้บริหารของเบียร์ยี่ห้อดังสัญชาติดัตช์ ที่ถูกโจรกลุ่มหนึ่งจับตัวไปเรียกค่าไถ่พร้อมกับคนขับรถ ขณะกำลังออกจากบริษัทในเย็นวันที่ 9 เดือนพฤศจิกายน ปี 1983

เหล่าหัวโจกของโจรกลุ่มดังกล่าวรับบทโดย แซม เวิร์ธธิงตัน, จิม สเตอร์เจส และไรอัน ควอนเตน ทั้งหมดวางแผนเรียกค่าไถ่อยู่นานถึง 2 ปี พยายามทำให้เป็นแผนอาชญากรรมอันสมบูรณ์แบบ และพวกเขาก็ทำได้สำเร็จ !

{MINI}_Kidnapping.Mr.Heineken.2015.1080p.BrRip.AC3.x264[Load2up.com].mkv
Format : Matroska
Format version : Version 4 / Version 2
File size : 3.85 GiB
Duration : 1 h 34 min
Overall bit rate : 5 814 kb/s
Movie name : {MINI}_Kidnapping.Mr.Heineken.2015.1080p.BrRip.AC3.x264.CtHts
Encoded date : UTC 2010-02-22 21:41:31
Writing application : mkvmerge v5.9.0 (‘On The Loose’) built on Dec 9 2012 15:37:01
Writing library : libebml v1.3.0 + libmatroska v1.4.0

Video
ID : 1
Format : AVC
Format/Info : Advanced Video Codec
Format profile : High@L4
Format settings, CABAC : Yes
Format settings, ReFrames : 4 frames
Codec ID : V_MPEG4/ISO/AVC
Duration : 1 h 34 min
Bit rate : 4 555 kb/s
Width : 1 920 pixels
Height : 804 pixels
Display aspect ratio : 2.40:1
Frame rate mode : Constant
Frame rate : 23.976 (24000/1001) FPS
Color space : YUV
Chroma subsampling : 4:2:0
Bit depth : 8 bits
Scan type : Progressive
Bits/(Pixel*Frame) : 0.123
Stream size : 3.05 GiB (79%)
Title : {MINI}_Kidnapping.Mr.Heineken.2015.1080p.BrRip.AC3.x264.CtHts
Writing library : x264 core 130 r2273 b3065e6
Language : English
Default : Yes
Forced : No
Color range : Limited
Color primaries : BT.709
Transfer characteristics : BT.709
Matrix coefficients : BT.709

Audio #1
ID : 2
Format : AC-3
Format/Info : Audio Coding 3
Mode extension : CM (complete main)
Format settings, Endianness : Big
Codec ID : A_AC3
Duration : 1 h 34 min
Bit rate mode : Constant
Bit rate : 448 kb/s
Channel(s) : 6 channels
Channel positions : Front: L C R, Side: L R, LFE
Sampling rate : 48.0 kHz
Frame rate : 31.250 FPS (1536 spf)
Compression mode : Lossy
Delay relative to video : 13 s 250 ms
Stream size : 304 MiB (8%)
Title : Thai DVD Master
Language : Thai
Default : Yes
Forced : Yes

Audio #2
ID : 3
Format : AC-3
Format/Info : Audio Coding 3
Mode extension : CM (complete main)
Format settings, Endianness : Big
Codec ID : A_AC3
Duration : 1 h 34 min
Bit rate mode : Constant
Bit rate : 640 kb/s
Channel(s) : 6 channels
Channel positions : Front: L C R, Side: L R, LFE
Sampling rate : 48.0 kHz
Frame rate : 31.250 FPS (1536 spf)
Compression mode : Lossy
Stream size : 434 MiB (11%)
Title : English AC3 5.1
Language : English
Default : No
Forced : No

Text #1
ID : 4
Format : VobSub
Codec ID : S_VOBSUB
Codec ID/Info : Picture based subtitle format used on DVDs
Title : Thai 480p From DVD Master
Language : Thai
Default : No
Forced : No

Text #2
ID : 5
Format : VobSub
Codec ID : S_VOBSUB
Codec ID/Info : Picture based subtitle format used on DVDs
Title : Thai 720p
Language : Thai
Default : No
Forced : No

Text #3
ID : 6
Format : VobSub
Codec ID : S_VOBSUB
Codec ID/Info : Picture based subtitle format used on DVDs
Title : Thai 1080p
Language : Thai
Default : Yes
Forced : Yes

Text #4
ID : 7
Format : VobSub
Codec ID : S_VOBSUB
Codec ID/Info : Picture based subtitle format used on DVDs
Title : Thai 1080p Yellow
Language : Thai
Default : No
Forced : No

Text #5
ID : 8
Format : VobSub
Codec ID : S_VOBSUB
Codec ID/Info : Picture based subtitle format used on DVDs
Title : Thai 1080p Out
Language : Thai
Default : No
Forced : No

Text #6
ID : 9
Format : VobSub
Codec ID : S_VOBSUB
Codec ID/Info : Picture based subtitle format used on DVDs
Title : Thai 1080p BIG
Language : Thai
Default : No
Forced : No

Text #7
ID : 10
Format : PGS
Codec ID : S_HDMV/PGS
Codec ID/Info : Picture based subtitle format used on BDs/HD-DVDs
Title : Thai PGS
Language : Thai
Default : No
Forced : No

Text #8
ID : 11
Format : PGS
Codec ID : S_HDMV/PGS
Codec ID/Info : Picture based subtitle format used on BDs/HD-DVDs
Title : Thai PGS Yellow
Language : Thai
Default : No
Forced : No

Text #9
ID : 12
Format : PGS
Codec ID : S_HDMV/PGS
Codec ID/Info : Picture based subtitle format used on BDs/HD-DVDs
Title : Thai PGS Out
Language : Thai
Default : No
Forced : No

Text #10
ID : 13
Format : PGS
Codec ID : S_HDMV/PGS
Codec ID/Info : Picture based subtitle format used on BDs/HD-DVDs
Title : English
Language : English
Default : No
Forced : No



หมายเหตุ ทุกเว็บโหลดแทนกันได้ แต่ต้องเปลี่ยนชื่อให้เรียงกันด้วย



%d bloggers like this: