[MINI-HD 1080P] Independence Day Resurgence (2016) ไอดี 4: สงครามใหม่วันบดโลก [พากย์ไทย + เสียงอังกฤษ DTS] [บรรยายไทย + อังกฤษ] [MASTER] [MKV] [FILEFENIX] [ONE2UP]

[MINI-HD 1080P] Independence Day Resurgence (2016) ไอดี 4: สงครามใหม่วันบดโลก

หลังจากการตายในอุบัติเหตุที่เกิดขึ้น “Independence Day 2” ระหว่างทดสอบยานรบต่อต้านเอเลี่ยนรุ่นแรกของ “กัปตันสตีฟ” นักบินของนาวิกโยธินสหรัฐ หนึ่งในผู้กอบกู้โลกจากการโจมตีของมนุษย์ต่างดาว เทคโนโลยีมนุษย์ก็ได้ก้าวล้ำขึ้นมาเรื่อยๆ จนมีทั้งการสร้างอาวุธ และพาหนะสุดไฮเทค ตลอดนักบินนาวิกโยธินสหรัฐรุ่นใหม่ๆ ที่ถูกฝึกฝนฝีมือมากยิ่งขึ้น หนึ่งในนั้นก็คือ “แจ็ค มอร์ริสัน” อดีตเด็กกำพร้า ผู้ไต่เต้าจนได้กลายเป็นนักบินรบ แต่ด้วยเพราะความผิดพลาดบางอย่าง จึงทำให้เขาถูกเนรเทศไปประจำการในฐานทัพบนดวงจันทร์ และทำหน้าที่ขับเครื่อง Moon Tug แทนขณะเดียวกัน เดวิด เลวินสัน สงครามใหม่วันบดโลก 2 ผู้เชี่ยวชาญด้านดาวเทียมและคอมพิวเตอร์จากภาคที่แล้ว ซึ่งได้เลื่อนตำแหน่งเป็นผู้อำนวยการของกองกำลัง Earth Space Defense ซึ่งมีหน้าที่ปกป้องโลกจากภัยคุกคามจากอวกาศในภาคนี้ ก็ตรวจพบสัญญาณเตือนการกลับมาของหายนะครั้งยิ่งใหญ่ที่เขาเคยเผชิญมาอีกครั้ง แต่ครั้งนี้มันช่างน่าสะพรึงกลัวยิ่งกว่า และมันอาจหมายถึงอวสานของโลกและแล้วการเผชิญหน้าระหว่างกองทัพมนุษย์แลผู้มาเยือนต่างดาวได้เริ่มขึ้น การปะทะกันของสองเผ่าพันธุ์ได้เปิดฉาก การมาของยานอวกาศขนาดยักษ์ก่อเกิดมหันตภัยการทำลายล้างไปรอบทิศ id4 ภาค 2 ผู้คนทั่วโลกต้องประสบกับการการล้มตาย จากความตั้งใจที่จะทำลายล้างเผ่าพันธุ์มนุษย์ให้สิ้นซากและเข้ายึดครองให้ได้อีกครั้ง ทางเดียวที่หยุดพวกมันได้มีเพียงสมองอันชาญฉลาดของคนเพียงไม่กี่คน และการพลีชีพของกองกำลังติดอาวุธเต็มรูปแบบ เพื่อปกป้องโลกแต่สุดท้ายแล้ว… สงครามการต่อสู้เพื่อดำรงไว้ซึ่งเผ่าพันธุ์ และการปกป้องสิ่งที่เรียว่า “บ้าน” ครั้งนี้จะเป็นอย่างไร คงต้องติดตามความคืบหน้าในภารกิจครั้งสำคัญนี้ของ “แจ็ค” และ “เดวิด” กันต่อไป

{MINI Super-HQ}_Independence.Day.Resurgence.2016.1080p.BrRip.DTS.x264[Load2up.com].mkv
Format : Matroska
Format version : Version 4 / Version 2
File size : 3.95 GiB
Duration : 1 h 59 min
Overall bit rate : 4 725 kb/s
Movie name : {MINI Super-HQ}_Independence.Day.Resurgence.2016.1080p.BrRip.DTS.x264
Encoded date : UTC 2010-02-22 21:41:31
Writing application : mkvmerge v5.9.0 (‘On The Loose’) built on Dec 9 2012 15:37:01
Writing library : libebml v1.3.0 + libmatroska v1.4.0

Video
ID : 1
Format : AVC
Format/Info : Advanced Video Codec
Format profile : High@L4
Format settings, CABAC : Yes
Format settings, ReFrames : 4 frames
Codec ID : V_MPEG4/ISO/AVC
Duration : 1 h 59 min
Bit rate : 3 555 kb/s
Width : 1 920 pixels
Height : 800 pixels
Display aspect ratio : 2.40:1
Frame rate mode : Constant
Frame rate : 23.976 (24000/1001) FPS
Color space : YUV
Chroma subsampling : 4:2:0
Bit depth : 8 bits
Scan type : Progressive
Bits/(Pixel*Frame) : 0.097
Stream size : 3.06 GiB (77%)
Title : {MINI Super-HQ}_Independence.Day.Resurgence.2016.1080p.BrRip.DTS.x264
Language : English
Default : Yes
Forced : No
Color range : Limited
Color primaries : BT.709
Transfer characteristics : BT.709
Matrix coefficients : BT.709

Audio #1
ID : 2
Format : DTS
Format/Info : Digital Theater Systems
Mode : 16
Format settings, Endianness : Big
Codec ID : A_DTS
Duration : 1 h 59 min
Bit rate mode : Constant
Bit rate : 755 kb/s
Channel(s) : 6 channels
Channel positions : Front: L C R, Side: L R, LFE
Sampling rate : 48.0 kHz
Frame rate : 93.750 FPS (512 spf)
Bit depth : 24 bits
Compression mode : Lossy
Stream size : 646 MiB (16%)
Default : No
Forced : No

Audio #2
ID : 3
Format : AC-3
Format/Info : Audio Coding 3
Mode extension : CM (complete main)
Format settings, Endianness : Big
Codec ID : A_AC3
Duration : 1 h 59 min
Bit rate mode : Constant
Bit rate : 224 kb/s
Channel(s) : 2 channels
Channel positions : Front: L R
Sampling rate : 48.0 kHz
Frame rate : 31.250 FPS (1536 spf)
Compression mode : Lossy
Delay relative to video : 950 ms
Stream size : 192 MiB (5%)
Title : Thai Master
Language : Thai
Default : Yes
Forced : Yes

Text #1
ID : 4
Format : VobSub
Codec ID : S_VOBSUB
Codec ID/Info : Picture based subtitle format used on DVDs
Title : Thai 480p From DVD Master
Language : Thai
Default : No
Forced : No

Text #2
ID : 5
Format : VobSub
Codec ID : S_VOBSUB
Codec ID/Info : Picture based subtitle format used on DVDs
Title : Thai 720p
Language : Thai
Default : No
Forced : No

Text #3
ID : 6
Format : VobSub
Codec ID : S_VOBSUB
Codec ID/Info : Picture based subtitle format used on DVDs
Title : Thai 1080p Master
Language : Thai
Default : Yes
Forced : Yes

Text #4
ID : 7
Format : VobSub
Codec ID : S_VOBSUB
Codec ID/Info : Picture based subtitle format used on DVDs
Title : Thai 1080p Yellow
Language : Thai
Default : No
Forced : No

Text #5
ID : 8
Format : VobSub
Codec ID : S_VOBSUB
Codec ID/Info : Picture based subtitle format used on DVDs
Title : Thai 1080p Out
Language : Thai
Default : No
Forced : No

Text #6
ID : 9
Format : VobSub
Codec ID : S_VOBSUB
Codec ID/Info : Picture based subtitle format used on DVDs
Title : Thai 1080p BIG
Language : Thai
Default : No
Forced : No

Text #7
ID : 10
Format : VobSub
Codec ID : S_VOBSUB
Codec ID/Info : Picture based subtitle format used on DVDs
Title : Thai 1080p Out [BIG] Language : Thai
Default : No
Forced : No

Text #8
ID : 11
Format : PGS
Codec ID : S_HDMV/PGS
Codec ID/Info : Picture based subtitle format used on BDs/HD-DVDs
Title : Thai PGS
Language : Thai
Default : No
Forced : No

Text #9
ID : 12
Format : PGS
Codec ID : S_HDMV/PGS
Codec ID/Info : Picture based subtitle format used on BDs/HD-DVDs
Title : Thai PGS Yellow
Language : Thai
Default : No
Forced : No

Text #10
ID : 13
Format : PGS
Codec ID : S_HDMV/PGS
Codec ID/Info : Picture based subtitle format used on BDs/HD-DVDs
Title : Thai PGS Out
Language : Thai
Default : No
Forced : No

Text #11
ID : 14
Format : VobSub
Codec ID : S_VOBSUB
Codec ID/Info : Picture based subtitle format used on DVDs
Title : English
Language : English
Default : No
Forced : No



หมายเหตุ ทุกเว็บโหลดแทนกันได้ แต่ต้องเปลี่ยนชื่อให้เรียงกันด้วย



%d bloggers like this: