[MINI-HD 1080P] Hayride 2 (2015) ตำนานสยองเลือด [พากย์ไทย 5.1 + เสียงอังกฤษ 5.1] [บรรยายไทย + อังกฤษ] [MASTER] [MKV] [ONE2UP]

[MINI-HD 1080P] Hayride 2 (2015) ตำนานสยองเลือด

ภาคที่แล้ว ไม่ใช่จุดจบแต่เป็นการเริ่มต้นตำนานสยองสุดโหดบทใหม่ เมื่อนักสืบลูมิสต้องกลับมาสืบหาฆาตกรสุดโหดที่หนีรอดจากการจับกุมอีกครั้งแต่ว่าครั้งนี้เมื่อมันสามารถหรีรอดออกมาได้ กลับยิ่งทวีความโหดต่อเหยื่อของมันมากยิ่งขึ้น
เมื่อมันหมายตาใครหรือใครที่โชคร้ายมากพอนักสืบลูมิสจะสามารถหยุดฆาตกรสุดโหดรายนี้ได้อีกครั้งหรือไม่

Hayride.2.2015.720p.WEB-DL.XviD.AC3[Load2up.com].mkv
Format : Matroska
Format version : Version 4 / Version 2
File size : 3.03 GiB
Duration : 1 h 32 min
Overall bit rate : 4 699 kb/s
Movie name : Hayride.2.2015.720p.WEB-DL.XviD.AC3
Encoded date : UTC 2017-03-03 03:51:53
Writing application : mkvmerge v9.2.0 (‘Photograph’) 64bit
Writing library : libebml v1.3.3 + libmatroska v1.4.4

Video
ID : 1
Format : MPEG-4 Visual
Format profile : Simp[email protected]
Format settings, BVOP : No
Format settings, QPel : No
Format settings, GMC : No warppoints
Format settings, Matrix : Default (H.263)
Codec ID : V_MS/VFW/FOURCC / XVID
Codec ID/Hint : XviD
Duration : 1 h 32 min
Bit rate : 3 782 kb/s
Width : 1 280 pixels
Height : 720 pixels
Display aspect ratio : 16:9
Frame rate mode : Constant
Frame rate : 23.976 FPS
Color space : YUV
Chroma subsampling : 4:2:0
Bit depth : 8 bits
Scan type : Progressive
Compression mode : Lossy
Bits/(Pixel*Frame) : 0.171
Stream size : 2.44 GiB (80%)
Title : Hayride.2.2015.720p.WEB-DL.XviD.AC3
Writing library : Lavc56.20.100
Language : English
Default : Yes
Forced : Yes

Audio #1
ID : 2
Format : AC-3
Format/Info : Audio Coding 3
Mode extension : CM (complete main)
Format settings, Endianness : Big
Codec ID : A_AC3
Duration : 1 h 32 min
Bit rate mode : Constant
Bit rate : 448 kb/s
Channel(s) : 6 channels
Channel positions : Front: L C R, Side: L R, LFE
Sampling rate : 48.0 kHz
Frame rate : 31.250 FPS (1536 spf)
Bit depth : 16 bits
Compression mode : Lossy
Stream size : 296 MiB (10%)
Title : AC3 5.1 DVD Master
Language : Thai
Default : Yes
Forced : Yes

Audio #2
ID : 3
Format : AC-3
Format/Info : Audio Coding 3
Mode extension : CM (complete main)
Format settings, Endianness : Big
Codec ID : A_AC3
Duration : 1 h 32 min
Bit rate mode : Constant
Bit rate : 448 kb/s
Channel(s) : 6 channels
Channel positions : Front: L C R, Side: L R, LFE
Sampling rate : 48.0 kHz
Frame rate : 31.250 FPS (1536 spf)
Bit depth : 16 bits
Compression mode : Lossy
Stream size : 296 MiB (10%)
Title : AC3 5.1 DVD Master
Language : English
Default : No
Forced : No

Text #1
ID : 4
Format : VobSub
Muxing mode : zlib
Codec ID : S_VOBSUB
Codec ID/Info : Picture based subtitle format used on DVDs
Duration : 1 h 29 min
Bit rate : 1 850 b/s
Count of elements : 674
Stream size : 1.18 MiB (0%)
Title : 720p
Language : Thai
Default : Yes
Forced : Yes

Text #2
ID : 5
Format : VobSub
Muxing mode : zlib
Codec ID : S_VOBSUB
Codec ID/Info : Picture based subtitle format used on DVDs
Duration : 1 h 29 min
Bit rate : 1 855 b/s
Count of elements : 674
Stream size : 1.18 MiB (0%)
Title : 720p Yellow
Language : Thai
Default : No
Forced : No

Text #3
ID : 6
Format : VobSub
Muxing mode : zlib
Codec ID : S_VOBSUB
Codec ID/Info : Picture based subtitle format used on DVDs
Duration : 1 h 29 min
Bit rate : 1 226 b/s
Count of elements : 674
Stream size : 801 KiB (0%)
Title : 480p
Language : Thai
Default : No
Forced : No

Text #4
ID : 7
Format : PGS
Muxing mode : zlib
Codec ID : S_HDMV/PGS
Codec ID/Info : Picture based subtitle format used on BDs/HD-DVDs
Duration : 1 h 29 min
Bit rate : 7 170 b/s
Count of elements : 1348
Stream size : 4.57 MiB (0%)
Title : PGS
Language : Thai
Default : No
Forced : No

Text #5
ID : 8
Format : PGS
Muxing mode : zlib
Codec ID : S_HDMV/PGS
Codec ID/Info : Picture based subtitle format used on BDs/HD-DVDs
Duration : 1 h 29 min
Bit rate : 7 186 b/s
Count of elements : 1348
Stream size : 4.58 MiB (0%)
Title : PGS Yellow
Language : Thai
Default : No
Forced : No

Text #6
ID : 9
Format : UTF-8
Codec ID : S_TEXT/UTF8
Codec ID/Info : UTF-8 Plain Text
Duration : 1 h 28 min
Bit rate : 40 b/s
Count of elements : 654
Stream size : 26.1 KiB (0%)
Title : SRT
Language : English
Default : No
Forced : No



หมายเหตุ ทุกเว็บโหลดแทนกันได้ แต่ต้องเปลี่ยนชื่อให้เรียงกันด้วย

สำหรับสมาชิก VIP เท่านั้น!

%d bloggers like this: