[MINI-HD 1080P] Ghostbusters (2016) บริษัทกำจัดผี [เสียงไทย] [MKV] [FILEFENIX] [ONE2UP]

[MINI-HD 1080P] Ghostbusters (2016) บริษัทกำจัดผี

เรื่องราวของ อีริน กิลเบิร์ท (Erin Gilbert), แอบบี้ เยทส์ (Abby Yates) และ จิลเลี่ยม โฮลทซ์แมน (Jillian Holtzman) กลุ่มนักวิชาการสาวจากมหาวิทยาลัยโคลัมเบีย ผู้สนใจในสิ่งลี้ลับเหมือนกัน และได้รวมตัวกัน เพื่อใช้ความรู้ความสามารถ ผนวกเข้ากับการใช้เครื่องมือ และเทคโนโลยีทางวิทยาศาตร์ เข้าศึกษาปรากฏการณ์เหนือธรรมชาติต่างๆ จนกระทั่งได้ก่อตั้งเป็นบริษัทกำจัดผี ร่วมกับ แพตตี้ โทแลน (Patty Tolan) พนักงานสถานีรถไฟสาวร่างใหญ่ ผู้รู้ดีเกี่ยวกับนิวยอร์ก และ เควิน (Kevin) เลขาหนุ่มสุดหล่อคนเดียวของบริษัท และแล้วระหว่างที่พวกเธอกำลังปฏิบัติหน้าที่ตามล่าเหล่าผีร้ายอยู่นั้น พวกเธอก็พบว่ามีใครบางคนได้ทำเครื่องมือปลดปล่อยเหล่าผีร้ายให้ออกอาละวาดทั่วเมือง จนเกิดเป็นความวุ่นวายทั่วนิวยอร์ก ความหวังเดียวที่จะหยุดยั้งได้ จึงตกอยู่กับสาวๆ บริษัทกำจัดผีทั้ง 4 คน

Ghostbusters.2016.1080p.WEB-DL.H264.AC3.THAI.ITUNES[Load2up.com].mkv
Format : Matroska
Format version : Version 4 / Version 2
File size : 3.84 GiB
Duration : 1 h 56 min
Overall bit rate : 4 711 kb/s
Movie name : Ghostbusters.2016.1080p.WEB-DL.H264.AC3.THAI.ITUNES[Load2up.com] Encoded date : UTC 2016-09-29 06:55:50
Writing application : mkvmerge v8.9.0 (‘Father Daughter’) 32bit
Writing library : libebml v1.3.3 + libmatroska v1.4.4

Video
ID : 1
Format : AVC
Format/Info : Advanced Video Codec
Format profile : High@L4
Format settings, CABAC : Yes
Format settings, ReFrames : 5 frames
Codec ID : V_MPEG4/ISO/AVC
Duration : 1 h 56 min
Bit rate : 4 426 kb/s
Width : 1 920 pixels
Height : 792 pixels
Display aspect ratio : 2.40:1
Frame rate mode : Constant
Frame rate : 23.976 FPS
Color space : YUV
Chroma subsampling : 4:2:0
Bit depth : 8 bits
Scan type : Progressive
Bits/(Pixel*Frame) : 0.121
Stream size : 3.61 GiB (94%)
Title : Ghostbusters.2016.1080p.WEB-DL.H264.AC3.THAI.ITUNES
Language : English
Default : Yes
Forced : Yes
Color range : Limited
Color primaries : BT.709
Transfer characteristics : BT.709
Matrix coefficients : BT.709

Audio
ID : 2
Format : AC-3
Format/Info : Audio Coding 3
Mode extension : CM (complete main)
Format settings, Endianness : Big
Codec ID : A_AC3
Duration : 1 h 56 min
Bit rate mode : Constant
Bit rate : 192 kb/s
Channel(s) : 2 channels
Channel positions : Front: L R
Sampling rate : 48.0 kHz
Frame rate : 31.250 FPS (1536 spf)
Compression mode : Lossy
Stream size : 160 MiB (4%)
Title : TH AC3 ITUNES MASTER ZAKKY
Language : Thai
Default : Yes
Forced : Yes



หมายเหตุ ทุกเว็บโหลดแทนกันได้ แต่ต้องเปลี่ยนชื่อให้เรียงกันด้วย


%d bloggers like this: