[MINI-HD 1080P] Enemy at the Gates (2001) กระสุนสังหารพลิกโลก [เสียงไทยมาสเตอร์ + ENG] [บรรยายไทย + อังกฤษ] [MASTER] [MKV] [ONE2UP]

[MINI-HD 1080P] Enemy at the Gates (2001) กระสุนสังหารพลิกโลก

สไนเปอร์ หรือพลซุ่มยิงในระยะไกล คือผู้ที่มีความสามารถสูงในเรื่องของการยิงปืนในระยะ ไกลซึ่งได้รับการฝึกฝนมาเป็นอย่างดี ในการยิงเป้าหมายในสถาณการณ์ต่างๆ ที่ต้องใช้ความสามารถในเรื่องของการยิงปืน เรื่องของความอยู่รอดในพื้นที่ต่าง ๆ เป็นระยะเวลานาน เช่น ในป่าหรือในพื้นที่สิ่งก่อสร้าง หน้าที่ของพลซุ่มยิงคือการวางวิถีกระสุนอย่างแม่นยำไ ปยังฝ่ายข้าศึกซึ่งทหารในหน่วยต่างๆ ไม่สามารถทำการยิงได้ ทั้งนี้อาจจะเป็นเพราะระยะทางขนาดของกำลังข้าศึกหรือ ที่ตั้งฝ่ายข้าศึกและการมองเห็น ดังนั้นชื่อของสไนเปอร์จึงเป็นกองกำลังที่มีความสำคั ญในกองทัพทหารหรือตำรวจดังที่เราได้เห็นในสถาณการณ์ต ่าง ๆ ในปัจจุบัน… และในวงการภาพยนตร์ก็มีการสร้างหนังที่ตีแผ่ชีวิตและ เรื่องราวของสไนเปอร์อยู่หลายเรื่อง และวันนี้ผมก็มีภาพยนตร์เรื่องหนึ่งที่สร้างขึ้นอิงจ ากเรื่องราวในสงครามโลกครั้งที่ 2 ภาพยนตร์เรื่องนั้นคือ Enemy At The Gates กระสุนสังหารพลิกโลก เรื่องราวการสู้รบระหว่างสหภาพโซเวียตกับกองทัพทหารน าซีที่พูดถึงเรื่องราวของยอดสไนเปอร์แห่งกองทัพโซเวี ยตนายหนึ่งที่ฝีมือการซุ่มยิงของเค้าเป็นที่เลื่องลื อไปทั่ว จนทำให้กองทัพนาซีต้องส่งสุดยอดสไนเปอร์มือหนึ่งของต นมาจัดการ การชิงไหวชิงพริบของยอดสไนเปอร์ทั้งสองกองทัพ การดำเนินเรื่องสุดเข้มข้นจึงทำให้ Enemy At The Gates กระสุนสังหารพลิกโลก

[Mini-HD] Enemy.at.the.Gates.2001..1080p..AC3.x264[Load2up.com].mkv
Format : Matroska
Format version : Version 4 / Version 2
File size : 4.28 GiB
Duration : 2 h 10 min
Overall bit rate : 4 677 kb/s
Movie name : Eastboy
Encoded date : UTC 2015-08-12 05:21:37
Writing application : mkvmerge v7.9.0 (‘Birds’) 64bit
Writing library : libebml v1.3.1 + libmatroska v1.4.2

Video
ID : 1
Format : AVC
Format/Info : Advanced Video Codec
Format profile : [email protected]
Format settings, CABAC : Yes
Format settings, ReFrames : 4 frames
Codec ID : V_MPEG4/ISO/AVC
Duration : 2 h 10 min
Bit rate : 3 650 kb/s
Width : 1 920 pixels
Height : 1 080 pixels
Display aspect ratio : 16:9
Frame rate mode : Constant
Frame rate : 23.976 (24000/1001) FPS
Color space : YUV
Chroma subsampling : 4:2:0
Bit depth : 8 bits
Scan type : Progressive
Bits/(Pixel*Frame) : 0.073
Stream size : 3.26 GiB (76%)
Title : x264 3650 Kbps
Writing library : x264 core 142 r2431+42 c69a006 tMod [[email protected] X86] Language : English
Default : Yes
Forced : No

Audio #1
ID : 2
Format : AC-3
Format/Info : Audio Coding 3
Mode extension : CM (complete main)
Format settings, Endianness : Big
Codec ID : A_AC3
Duration : 2 h 10 min
Bit rate mode : Constant
Bit rate : 640 kb/s
Channel(s) : 6 channels
Channel positions : Front: L C R, Side: L R, LFE
Sampling rate : 48.0 kHz
Frame rate : 31.250 FPS (1536 spf)
Bit depth : 16 bits
Compression mode : Lossy
Stream size : 599 MiB (14%)
Title : AC3 640 Kbps
Language : English
Default : Yes
Forced : No

Audio #2
ID : 3
Format : AC-3
Format/Info : Audio Coding 3
Mode extension : CM (complete main)
Format settings, Endianness : Big
Codec ID : A_AC3
Duration : 2 h 10 min
Bit rate mode : Constant
Bit rate : 384 kb/s
Channel(s) : 6 channels
Channel positions : Front: L C R, Side: L R, LFE
Sampling rate : 48.0 kHz
Frame rate : 31.250 FPS (1536 spf)
Bit depth : 16 bits
Compression mode : Lossy
Stream size : 360 MiB (8%)
Title : AC3 384 Kbps
Language : Thai
Default : No
Forced : No

Text #1
ID : 4
Format : VobSub
Muxing mode : zlib
Codec ID : S_VOBSUB
Codec ID/Info : Picture based subtitle format used on DVDs
Title : 1080p remake by Eros
Language : Thai
Default : Yes
Forced : No

Text #2
ID : 5
Format : UTF-8
Codec ID : S_TEXT/UTF8
Codec ID/Info : UTF-8 Plain Text
Language : English
Default : No
Forced : No



หมายเหตุ ทุกเว็บโหลดแทนกันได้ แต่ต้องเปลี่ยนชื่อให้เรียงกันด้วย

สำหรับสมาชิก VIP เท่านั้น!

[restrict …]

|——————————————————————|

|——————————————————————|

[/restrict]

%d bloggers like this: