[MINI-HD 1080P] Detective K: Secret Of The Lost Islan (2015) ยอดนักสืบ พลิกโชซอน [พากย์ไทย 5.1 + เกาหลี DTS] [บรรยายไทย + อังกฤษ] [MKV] [FILEFENIX] [ONE2UP]

[MINI-HD 1080P] Detective K: Secret Of The Lost Islan (2015) ยอดนักสืบ พลิกโชซอน

Detective K: Secret Of The Lost Islan ในปีที่19 ของพระเจ้าชองโจ “คิมมิน” สุดยอดนักสืบแห่งรัชสมัยโชซอน ผู้ที่เคยส่งสารลับของพระราชาได้ถูกเนรเทศไปยังเกาะอันห่างไกลด้วยเหตุผลบางประการ “ซอพิล” คู่ซี้ที่เคยเป็นพันธมิตรต่อกันมาได้ และเด็กสาวผู้หนึ่งที่มาเยี่ยม “นักสืบคิมมิน” ทุกวันเพื่อต้องการให้เขาสืบหาน้องสาวเธอ ในขณะที่นักสืบคิมมินได้ยินข่าวลือที่ว่ามีการปลอมแปลงเงินแท่งกระจายสู่ท้องตลาดไปทั่ว จากที่พักผ่อนและทำตัวไม่เดือดเนื้อร้อนใจกับสิ่งใด ข่าวการปลอมเงินแท่งได้ทำให้เขาลุกขึ้นและตัดสินใจที่จะหลบหนีจากเกาแห่งนี้ เพื่อไปตรวจสอบเรื่องเงินแท่งปลอมพร้อมกับการตามหาน้องสาวของหญิงสาวที่เคยมาขอร้องเขา สุดยอดนักสืบแห่งโชซอน คิมมิน และซอพิล ที่อาจเป็นนักสืบคนแรกๆในประวัติศาสตร์ก็ว่าได้ พวกเขาได้ออกมาเพื่อสืบหาเบาะแสต่างๆที่เป็นไปได้ ในขณะเดียวกัน ฮิซาโกะ หญิงสาวที่งดงาม แต่แฝงไปด้วยความเป็นมาที่ลึกลับ ไม่มีใครรู้จักตัวตนที่แท้จริงของเธอ และเป็นผู้ที่คอยขัดขวางการสืบสวนของสองนักสืบ เธอผู้นี้พยายามปกปิดอะไรกันแน่? คิมมิน และซอพิล สุดยอดคู่หูนักสืบ แห่งตำนานโชซอนที่กลับมาในครั้งนี้ จะฮาจะป่วนแค่ไหน? พวกเขาจะช่วยเหลือชาวเมืองโชซอนหลุดพ้นจากปัญหาต่างๆเหล่านี้ได้หรือมั้ย ติดตามได้ใน “Detective K ภาค 2 ตอน Secret of the Lost Island” !!!

{MINI Super-HQ}_Detective.K.Secret.of.the.Lost.Island.2015.1080p.BrRip.DTS.x264[Load2up.com].mkv
Format : Matroska
Format version : Version 4 / Version 2
File size : 3.99 GiB
Duration : 2 h 5 min
Overall bit rate : 4 571 kb/s
Movie name : {MINI Super-HQ}_Detective.K.Secret.of.the.Lost.Island.2015.1080p.BrRip.DTS.x264
Encoded date : UTC 2010-02-22 21:41:31
Writing application : mkvmerge v5.9.0 (‘On The Loose’) built on Dec 9 2012 15:37:01
Writing library : libebml v1.3.0 + libmatroska v1.4.0

Video
ID : 1
Format : AVC
Format/Info : Advanced Video Codec
Format profile : [email protected]
Format settings, CABAC : Yes
Format settings, ReFrames : 4 frames
Codec ID : V_MPEG4/ISO/AVC
Duration : 2 h 5 min
Bit rate : 3 202 kb/s
Width : 1 920 pixels
Height : 808 pixels
Display aspect ratio : 2.40:1
Frame rate mode : Constant
Frame rate : 23.976 (24000/1001) FPS
Color space : YUV
Chroma subsampling : 4:2:0
Bit depth : 8 bits
Scan type : Progressive
Bits/(Pixel*Frame) : 0.086
Stream size : 2.86 GiB (72%)
Title : {MINI Super-HQ}_Detective.K.Secret.of.the.Lost.Island.2015.1080p.BrRip.DTS.x264
Writing library : x264 core 130 r2273 b3065e6
Language : Korean
Default : Yes
Forced : No
Color range : Limited
Color primaries : BT.709
Transfer characteristics : BT.709
Matrix coefficients : BT.709

Audio #1
ID : 2
Format : AC-3
Format/Info : Audio Coding 3
Mode extension : CM (complete main)
Format settings, Endianness : Big
Codec ID : A_AC3
Duration : 2 h 5 min
Bit rate mode : Constant
Bit rate : 448 kb/s
Channel(s) : 6 channels
Channel positions : Front: L C R, Side: L R, LFE
Sampling rate : 48.0 kHz
Frame rate : 31.250 FPS (1536 spf)
Compression mode : Lossy
Stream size : 401 MiB (10%)
Title : Thai DVD Master
Language : Thai
Default : Yes
Forced : Yes

Audio #2
ID : 3
Format : DTS
Format/Info : Digital Theater Systems
Mode : 16
Format settings, Endianness : Big
Codec ID : A_DTS
Duration : 2 h 5 min
Bit rate mode : Constant
Bit rate : 755 kb/s
Channel(s) : 6 channels
Channel positions : Front: L C R, Side: L R, LFE
Sampling rate : 48.0 kHz
Frame rate : 93.750 FPS (512 spf)
Bit depth : 24 bits
Compression mode : Lossy
Stream size : 675 MiB (17%)
Title : Korean DTS
Language : Korean
Default : No
Forced : No

Text #1
ID : 4
Format : VobSub
Codec ID : S_VOBSUB
Codec ID/Info : Picture based subtitle format used on DVDs
Title : Thai 480p From DVD Master
Language : Thai
Default : No
Forced : No

Text #2
ID : 5
Format : VobSub
Codec ID : S_VOBSUB
Codec ID/Info : Picture based subtitle format used on DVDs
Title : Thai 720p
Language : Thai
Default : No
Forced : No

Text #3
ID : 6
Format : VobSub
Codec ID : S_VOBSUB
Codec ID/Info : Picture based subtitle format used on DVDs
Title : Thai 1080p
Language : Thai
Default : Yes
Forced : Yes

Text #4
ID : 7
Format : VobSub
Codec ID : S_VOBSUB
Codec ID/Info : Picture based subtitle format used on DVDs
Title : Thai 1080p Yellow
Language : Thai
Default : No
Forced : No

Text #5
ID : 8
Format : VobSub
Codec ID : S_VOBSUB
Codec ID/Info : Picture based subtitle format used on DVDs
Title : Thai 1080p Out
Language : Thai
Default : No
Forced : No

Text #6
ID : 9
Format : VobSub
Codec ID : S_VOBSUB
Codec ID/Info : Picture based subtitle format used on DVDs
Title : Thai 1080p BIG
Language : Thai
Default : No
Forced : No

Text #7
ID : 10
Format : VobSub
Codec ID : S_VOBSUB
Codec ID/Info : Picture based subtitle format used on DVDs
Title : Thai 1080p Out [BIG] Language : Thai
Default : No
Forced : No

Text #8
ID : 11
Format : PGS
Codec ID : S_HDMV/PGS
Codec ID/Info : Picture based subtitle format used on BDs/HD-DVDs
Title : Thai PGS
Language : Thai
Default : No
Forced : No

Text #9
ID : 12
Format : PGS
Codec ID : S_HDMV/PGS
Codec ID/Info : Picture based subtitle format used on BDs/HD-DVDs
Title : Thai PGS Yellow
Language : Thai
Default : No
Forced : No

Text #10
ID : 13
Format : PGS
Codec ID : S_HDMV/PGS
Codec ID/Info : Picture based subtitle format used on BDs/HD-DVDs
Title : Thai PGS Out
Language : Thai
Default : No
Forced : No

Text #11
ID : 14
Format : VobSub
Codec ID : S_VOBSUB
Codec ID/Info : Picture based subtitle format used on DVDs
Title : English
Language : English
Default : No
Forced : No



หมายเหตุ ทุกเว็บโหลดแทนกันได้ แต่ต้องเปลี่ยนชื่อให้เรียงกันด้วย



สำหรับสมาชิก VIP เท่านั้น!

[restrict …]

|——————————————————————|

|——————————————————————|

[/restrict]

%d bloggers like this: