[MINI-HD 1080P] Kubo And The Two Strings (2016) คูโบ้ และพิณมหัศจรรย์ [พากย์ไทย 5.1 + อังกฤษ DTS] [บรรยายไทย + อังกฤษ] [MKV] [FILEFENIX] [ONE2UP]

[MINI-HD 1080P] Kubo And The Two Strings (2016) คูโบ้ และพิณมหัศจรรย์

Kubo And The Two Strings หรือชื่อไทยว่า คูโบ้ และมหัศจรรย์พิณสองสาย Kubo and the Two Strings คูโบ้และพิณมหัศจรรย์ อนิเมชั่น-สต๊อปโมชั่น ผลงานล่าสุดจากไลก้า สตูดิโอผู้สร้าง Coraline, Paranorman และ The Boxtrolls พบกับเรื่องราวการผจญภัยของ คูโบ้ (ให้เสียงพากย์โดย อาร์ท พาร์คินสัน จาก Game of Thrones และ Dracula Untold) เด็กชายผู้ซึ่งมีความเฉลียวฉลาดและจิตใจงดงาม เขาใช้ชีวิตเรียบง่ายในเมืองริมทะเล ต่อมาชีวิตอันเงียบสงบของเขาก็หายไป เมื่อถูกวิญญาณอาฆาตตามรังควาน คูโบ้ ออกผจญภัยสุดระทึกร่วมกับลิง (เจ้าของรางวัลออสการ์ ชาร์ลิซ เธอรอน) และด้วง (เจ้าของรางวัลออสการ์ แมทธิว แม็คคอนาเฮย์) เพื่อปกป้องครอบครัวของเขา เขาออกค้นหาดาบ, เสื้อเกราะ และหมวกนักรบ เพื่อที่จะไขปริศนาของพ่อ ซามูไรนักรบผู้ยิ่งใหญ่ที่พลีชีพในสนามรบ คูโบ้ต้องต่อสู้กับเหล่าทวยเทพและอสุรกาย รวมถึง มูนคิง ผู้เต็มไปด้วยความอาฆาต (เรล์ฟ ไฟน์) และ คู่แฝดปีศาจ (รูนีย์ มาร่า) เพื่อไขความลับแห่งตำนาน และทำให้ครอบครัวมารวมกันอีกครั้ง!!!

{MINI Super-HQ}_Kubo.and.The.Two.Strings.2016.1080p.BrRip.DTS.x264[Load2up.com].mkv
Format : Matroska
Format version : Version 4 / Version 2
File size : 4.12 GiB
Duration : 1 h 41 min
Overall bit rate : 5 804 kb/s
Movie name : {MINI Super-HQ}_Kubo.and.The.Two.Strings.2016.1080p.BrRip.DTS.x264
Encoded date : UTC 2010-02-22 21:41:31
Writing application : mkvmerge v5.9.0 (‘On The Loose’) built on Dec 9 2012 15:37:01
Writing library : libebml v1.3.0 + libmatroska v1.4.0

Video
ID : 1
Format : AVC
Format/Info : Advanced Video Codec
Format profile : High@L4
Format settings, CABAC : Yes
Format settings, ReFrames : 4 frames
Codec ID : V_MPEG4/ISO/AVC
Duration : 1 h 41 min
Bit rate : 4 202 kb/s
Width : 1 920 pixels
Height : 800 pixels
Display aspect ratio : 2.40:1
Frame rate mode : Constant
Frame rate : 23.976 (24000/1001) FPS
Color space : YUV
Chroma subsampling : 4:2:0
Bit depth : 8 bits
Scan type : Progressive
Bits/(Pixel*Frame) : 0.114
Stream size : 2.96 GiB (72%)
Title : {MINI Super-HQ}_Kubo.and.The.Two.Strings.2016.1080p.BrRip.DTS.x264
Writing library : x264 core 130 r2273 b3065e6
Language : English
Default : Yes
Forced : No
Color range : Limited
Color primaries : BT.709
Transfer characteristics : BT.709
Matrix coefficients : BT.709

Audio #1
ID : 2
Format : DTS
Format/Info : Digital Theater Systems
Mode : 16
Format settings, Endianness : Big
Codec ID : A_DTS
Duration : 1 h 41 min
Bit rate mode : Constant
Bit rate : 768 kb/s
Channel(s) : 6 channels
Channel positions : Front: L C R, Side: L R, LFE
Sampling rate : 48.0 kHz
Frame rate : 93.750 FPS (512 spf)
Bit depth : 24 bits
Compression mode : Lossy
Stream size : 558 MiB (13%)
Title : Thai DTS BluRay Master
Language : Thai
Default : Yes
Forced : Yes

Audio #2
ID : 3
Format : DTS
Format/Info : Digital Theater Systems
Mode : 16
Format settings, Endianness : Big
Codec ID : A_DTS
Duration : 1 h 41 min
Bit rate mode : Constant
Bit rate : 755 kb/s
Channel(s) : 6 channels
Channel positions : Front: L C R, Side: L R, LFE
Sampling rate : 48.0 kHz
Frame rate : 93.750 FPS (512 spf)
Bit depth : 24 bits
Compression mode : Lossy
Stream size : 548 MiB (13%)
Title : English DTS
Language : English
Default : No
Forced : No

Text #1
ID : 4
Format : VobSub
Codec ID : S_VOBSUB
Codec ID/Info : Picture based subtitle format used on DVDs
Title : Thai 480p
Language : Thai
Default : No
Forced : No

Text #2
ID : 5
Format : VobSub
Codec ID : S_VOBSUB
Codec ID/Info : Picture based subtitle format used on DVDs
Title : Thai 720p
Language : Thai
Default : No
Forced : No

Text #3
ID : 6
Format : VobSub
Codec ID : S_VOBSUB
Codec ID/Info : Picture based subtitle format used on DVDs
Title : Thai 1080p
Language : Thai
Default : Yes
Forced : Yes

Text #4
ID : 7
Format : VobSub
Codec ID : S_VOBSUB
Codec ID/Info : Picture based subtitle format used on DVDs
Title : Thai 1080p Yellow
Language : Thai
Default : No
Forced : No

Text #5
ID : 8
Format : VobSub
Codec ID : S_VOBSUB
Codec ID/Info : Picture based subtitle format used on DVDs
Title : Thai 1080p Out
Language : Thai
Default : No
Forced : No

Text #6
ID : 9
Format : VobSub
Codec ID : S_VOBSUB
Codec ID/Info : Picture based subtitle format used on DVDs
Title : Thai 1080p BIG
Language : Thai
Default : No
Forced : No

Text #7
ID : 10
Format : VobSub
Codec ID : S_VOBSUB
Codec ID/Info : Picture based subtitle format used on DVDs
Title : Thai 1080p Out [BIG] Language : Thai
Default : No
Forced : No

Text #8
ID : 11
Format : PGS
Codec ID : S_HDMV/PGS
Codec ID/Info : Picture based subtitle format used on BDs/HD-DVDs
Title : Thai PGS BluRay Master
Language : Thai
Default : No
Forced : No

Text #9
ID : 12
Format : PGS
Codec ID : S_HDMV/PGS
Codec ID/Info : Picture based subtitle format used on BDs/HD-DVDs
Title : Thai PGS Out
Language : Thai
Default : No
Forced : No

Text #10
ID : 13
Format : VobSub
Codec ID : S_VOBSUB
Codec ID/Info : Picture based subtitle format used on DVDs
Title : English
Language : English
Default : No
Forced : No



หมายเหตุ ทุกเว็บโหลดแทนกันได้ แต่ต้องเปลี่ยนชื่อให้เรียงกันด้วย


สำหรับสมาชิก VIP เท่านั้น!

[restrict …]

|——————————————————————|

|——————————————————————|

[/restrict]

%d bloggers like this: