[MINI-HD 1080P] Cop Car (2015) ล่าไม่เลี้ยง [พากย์ไทย 5.1+เสียงอังกฤษ DTS] [บรรยายไทย+อังกฤษ] [MASTER] [MKV] [ONE2UP]

[MINI-HD 1080P] Cop Car (2015) ล่าไม่เลี้ยง

ทุกคนล้วนผ่านช่วงเวลาตอนเป็นเด็กมาแล้วทั้งนั้น และเด็กส่วนใหญ่ “อยาก” ทำในสิ่งที่ผู้ใหญ่ทำได้ เช่น การขับรถ ยอมรับเถิดว่า คุณเองก็เคยมีช่วงเวลาที่คิดอยากไปนั่งหลังพวงมาลัยแล้วขับรถแบบที่ผู้ใหญ่ทำสักครั้งก่อนโต และจะเกิดอะไรขึ้นหากสิทธิการนั่งหลังพวงมาลัย ตกอยู่ในกำมือเด็กสองคนที่ไม่เคยขับรถมาก่อน
ทราวิส (เจมส์ ฟรีดสัน – จอห์นสัน) และ แฮร์ริสัน (เฮยส์ เวลล์ฟอร์ด) เด็กชายสองคนเดินเล่นกันเพียงลำพัง พวกเขาพยายามทำในสิ่งที่ไม่เคยทำร่วมกัน จนกระทั่งไปเจอรถตำรวจคันหนึ่งจอดทิ้งไว้กลางทุ่ง มันไม่ล็อคประตู ทั้งยังมีกุญแจรถทิ้งไว้ราวกับรอให้พวกเขาทดลองขับมัน ซึ่งเด็กทั้งคู่ก็ไม่ปล่อยให้โอกาสนั้นหลุดลอยไป ด้วยการสตาร์ทรถและหัดบังคับมันไปบนถนนที่ราวกับว่ามีเพียงพวกเขาเท่านั้นที่ครองโลก แต่เหตุการณ์มันไม่ราบรื่นอย่างนั้น เมื่อรถตำรวจคันดังกล่าวมีเจ้าของชื่อ เครทเซอร์ (เควิน เบคอน) ซึ่งบนรถนั้นมีร่องรอยหลักฐานบางอย่าง ที่อาจสาวไปเจอต้นตอบางอย่างจนสั่นคลอนการงาน เขาจึงออกล่าไอ้หนูทั้งสองอย่างไม่ปราณี

{MINI Super-HQ}_Cop.Car.2015.1080p.BrRip.DTS.x264[Load2up.com].mkv
Format : Matroska
Format version : Version 4 / Version 2
File size : 3.78 GiB
Duration : 1 h 27 min
Overall bit rate : 6 158 kb/s
Movie name : {MINI Super-HQ}_Cop.Car.2015.1080p.BrRip.DTS.x264
Encoded date : UTC 2010-02-22 21:41:31
Writing application : mkvmerge v5.9.0 (‘On The Loose’) built on Dec 9 2012 15:37:01
Writing library : libebml v1.3.0 + libmatroska v1.4.0

Video
ID : 1
Format : AVC
Format/Info : Advanced Video Codec
Format profile : High@L4
Format settings, CABAC : Yes
Format settings, ReFrames : 4 frames
Codec ID : V_MPEG4/ISO/AVC
Duration : 1 h 27 min
Bit rate : 5 005 kb/s
Width : 1 920 pixels
Height : 804 pixels
Display aspect ratio : 2.40:1
Frame rate mode : Constant
Frame rate : 23.976 (24000/1001) FPS
Color space : YUV
Chroma subsampling : 4:2:0
Bit depth : 8 bits
Scan type : Progressive
Bits/(Pixel*Frame) : 0.135
Stream size : 3.01 GiB (80%)
Title : {MINI Super-HQ}_Cop.Car.2015.1080p.BrRip.DTS.x264
Writing library : x264 core 130 r2273 b3065e6
Language : English
Default : Yes
Forced : No
Color range : Limited
Color primaries : BT.709
Transfer characteristics : BT.709
Matrix coefficients : BT.709

Audio #1
ID : 2
Format : AC-3
Format/Info : Audio Coding 3
Mode extension : CM (complete main)
Format settings, Endianness : Big
Codec ID : A_AC3
Duration : 1 h 27 min
Bit rate mode : Constant
Bit rate : 384 kb/s
Channel(s) : 6 channels
Channel positions : Front: L C R, Side: L R, LFE
Sampling rate : 48.0 kHz
Frame rate : 31.250 FPS (1536 spf)
Bit depth : 16 bits
Compression mode : Lossy
Stream size : 242 MiB (6%)
Title : Thai Master
Language : Thai
Default : Yes
Forced : Yes

Audio #2
ID : 3
Format : DTS
Format/Info : Digital Theater Systems
Mode : 16
Format settings, Endianness : Big
Codec ID : A_DTS
Duration : 1 h 27 min
Bit rate mode : Constant
Bit rate : 755 kb/s
Channel(s) : 6 channels
Channel positions : Front: L C R, Side: L R, LFE
Sampling rate : 48.0 kHz
Frame rate : 93.750 FPS (512 spf)
Bit depth : 24 bits
Compression mode : Lossy
Stream size : 475 MiB (12%)
Title : English DTS
Language : English
Default : No
Forced : No

Text #1
ID : 4
Format : VobSub
Codec ID : S_VOBSUB
Codec ID/Info : Picture based subtitle format used on DVDs
Title : Thai
Language : Thai
Default : No
Forced : No

Text #2
ID : 5
Format : PGS
Codec ID : S_HDMV/PGS
Codec ID/Info : Picture based subtitle format used on BDs/HD-DVDs
Title : English
Language : English
Default : No
Forced : No



หมายเหตุ ทุกเว็บโหลดแทนกันได้ แต่ต้องเปลี่ยนชื่อให้เรียงกันด้วย

สำหรับสมาชิก VIP เท่านั้น!

%d bloggers like this: