[MINI-HD 1080P] Captain Phillips (2013) ฝ่านาทีพิฆาต โจรสลัดระทึกโลก [พากย์:อังกฤษDTS-ไทย5.1] [SubThai+Eng] [MASTER] [MKV] [FILEFENIX] [ONE2UP]

[MINI-HD 1080P] Captain Phillips (2013) ฝ่านาทีพิฆาต โจรสลัดระทึกโลก

Captain Phillips เป็นภาพยนตร์ที่ล้วงลึกเข้าไปในเหตุการณ์จริงที่โจรสลัดโซมาเลียปล้นเรือสินค้า แมสค์ อลาบามา ของอเมริกาในปี 2009 ผ่านทางการถ่ายทำที่โดดเด่นตามแบบฉบับของผู้กำกับ พอล กรีนกราส เรื่องราวนี้จะกลายเป็นทริลเลอร์สุดระทึก และภาพสะท้อนที่ซับซ้อนของผลกระทบหลากมุม ภาพยนตร์เรื่องนี้ให้น้ำหนักไปที่ความสัมพันธ์ระหว่างผู้บัญชาการเรืออลาบามา กัปตันริชาร์ด ฟิลลิปส์ (ทอม แฮงค์ เจ้าของสองรางวัลอคาเดมี่ อวอร์ด) และกัปตันโจรสลัดโซมาเลีย มิวส์ (บาร์คัด แอ็บดี้) ผู้จับเขาเป็นตัวประกัน ฟิลลิปส์และมิวส์เดินไปตามเส้นทางที่ต้องปะทะกันอย่างไม่อาจเลี่ยงได้ เมื่อมิวส์และลูกเรือหมายตาเรือที่ไร้อาวุธของฟิลลิปส์ หลังจากเหตุการณ์การเผชิญหน้าที่ทำให้พวกเขาต้องล่องลอยอยู่ห่างชายฝั่งโซมาเลีย 145 ไมล์ ทั้งคู่ก็พบว่าชีวิตของพวกเขาอยู่ในเงื้อมมือของสิ่งที่อยู่นอกเหนือการควบคุมของพวกเขา

[Mini-HD] Captain Phillips (2013)[Load2up.com].mkv
Format : Matroska
Format version : Version 4 / Version 2
File size : 3.49 GiB
Duration : 2 h 14 min
Overall bit rate : 3 723 kb/s
Encoded date : UTC 2016-10-06 07:39:43 / UTC 2016-10-06T06:27:25Z
Writing application : mkvmerge v8.3.0 (‘Over the Horizon’) 64bit
Writing library : libebml v1.3.1 + libmatroska v1.4.2 / Lavf55.12.0

Video
ID : 1
Format : AVC
Format/Info : Advanced Video Codec
Format profile : Main@L4
Format settings, CABAC : Yes
Format settings, ReFrames : 4 frames
Codec ID : V_MPEG4/ISO/AVC
Duration : 2 h 14 min
Bit rate : 1 756 kb/s
Width : 1 920 pixels
Height : 804 pixels
Display aspect ratio : 2.40:1
Frame rate mode : Constant
Frame rate : 23.976 (24000/1001) FPS
Color space : YUV
Chroma subsampling : 4:2:0
Bit depth : 8 bits
Scan type : Progressive
Bits/(Pixel*Frame) : 0.047
Stream size : 1.64 GiB (47%)
Writing library : x264 core 142 r2479 dd79a61
Language : Thai
Default : Yes
Forced : Yes
Color range : Limited
Color primaries : BT.709
Transfer characteristics : BT.709
Matrix coefficients : BT.709

Audio #1
ID : 2
Format : DTS
Format/Info : Digital Theater Systems
Mode : 16
Format settings, Endianness : Big
Codec ID : A_DTS
Duration : 2 h 14 min
Bit rate mode : Constant
Bit rate : 1 509 kb/s
Channel(s) : 6 channels
Channel positions : Front: L C R, Side: L R, LFE
Sampling rate : 48.0 kHz
Frame rate : 93.750 FPS (512 spf)
Bit depth : 24 bits
Compression mode : Lossy
Stream size : 1.41 GiB (41%)
Title : Surround
Language : English
Default : No
Forced : Yes

Audio #2
ID : 3
Format : AC-3
Format/Info : Audio Coding 3
Mode extension : CM (complete main)
Format settings, Endianness : Big
Codec ID : A_AC3
Duration : 2 h 14 min
Bit rate mode : Constant
Bit rate : 384 kb/s
Channel(s) : 6 channels
Channel positions : Front: L C R, Side: L R, LFE
Sampling rate : 48.0 kHz
Frame rate : 31.250 FPS (1536 spf)
Compression mode : Lossy
Stream size : 368 MiB (10%)
Title : Surround
Language : Thai
Default : Yes
Forced : Yes

Text #1
ID : 4
Format : PGS
Muxing mode : zlib
Codec ID : S_HDMV/PGS
Codec ID/Info : Picture based subtitle format used on BDs/HD-DVDs
Language : English
Default : No
Forced : Yes

Text #2
ID : 5
Format : PGS
Muxing mode : zlib
Codec ID : S_HDMV/PGS
Codec ID/Info : Picture based subtitle format used on BDs/HD-DVDs
Language : English
Default : No
Forced : Yes

Text #3
ID : 6
Format : PGS
Muxing mode : zlib
Codec ID : S_HDMV/PGS
Codec ID/Info : Picture based subtitle format used on BDs/HD-DVDs
Language : Thai
Default : No
Forced : Yes

Text #4
ID : 7
Format : PGS
Muxing mode : zlib
Codec ID : S_HDMV/PGS
Codec ID/Info : Picture based subtitle format used on BDs/HD-DVDs
Language : Thai
Default : No
Forced : Yes

Text #5
ID : 8
Format : PGS
Muxing mode : zlib
Codec ID : S_HDMV/PGS
Codec ID/Info : Picture based subtitle format used on BDs/HD-DVDs
Language : Thai
Default : Yes
Forced : Yes



หมายเหตุ ทุกเว็บโหลดแทนกันได้ แต่ต้องเปลี่ยนชื่อให้เรียงกันด้วย



%d bloggers like this: