[MINI-HD 1080P] The Boss Baby (2017) เดอะบอสเบบี้ [พากย์อังกฤษ 5.1] [อังกฤษ] [MKV] [ONE2UP]

[MINI-HD 1080P] The Boss Baby (2017) เดอะบอสเบบี้

The Boss Baby: จากผลงานการกำกับของ ทอม แม็คเกรธ ที่เคยฝากผลงานการกำกับ Madagascar ที่จะนำคุณไปพบกับเด็กทารกที่ไม่ธรรมดา เขาสวมชุดสูท มีน้ำเสียงและไหวพริบในแบบอเล็ค บอล์ดวิน เป็นเรื่องราวที่สร้างความฮาให้ทั้งโลกได้เกี่ยวกับการมาถึงของเด็กทารกคนหนึ่งจะมีอิทธิพลต่อครอบครัวได้ขนาดไหนโดยเล่าเรื่องราวจากมุมมองของผู้บรรยายที่ยากจะเชื่อถือได้อย่าง ทิม เด็กเพ้อฝันวัย 7 ขวบ พร้อมทั้งข้อคิดที่ซ่อนไว้และสร้างความอิ่มใจเรื่องความสำคัญของครอบครัว

The.Boss.Baby.2017[Load2up.com]\The.Boss.Baby.2017.1080p.WEB-DL.DD5.1.H264[Load2up.com].mkv
Format : Matroska
Format version : Version 4 / Version 2
File size : 3.33 GiB
Duration : 1 h 37 min
Overall bit rate : 4 876 kb/s
Movie name : The.Boss.Baby.2017.1080p.WEB-DL.DD5.1.H264
Encoded date : UTC 2017-05-18 18:45:55
Writing application : mkvmerge v11.0.0 (‘Alive’) 64bit
Writing library : libebml v1.3.4 + libmatroska v1.4.5
Cover : Yes
Attachments : cover.jpg / cover_land.jpg / small_cover.jpg / small_cover_land.jpg

Video
ID : 1
Format : AVC
Format/Info : Advanced Video Codec
Format profile : High@L4
Format settings, CABAC : Yes
Format settings, ReFrames : 5 frames
Codec ID : V_MPEG4/ISO/AVC
Duration : 1 h 37 min
Bit rate : 4 395 kb/s
Width : 1 916 pixels
Height : 812 pixels
Display aspect ratio : 2.35:1
Frame rate mode : Constant
Frame rate : 23.976 (24000/1001) FPS
Color space : YUV
Chroma subsampling : 4:2:0
Bit depth : 8 bits
Scan type : Progressive
Bits/(Pixel*Frame) : 0.118
Stream size : 3.00 GiB (90%)
Title : The.Boss.Baby.2017.1080p.WEB-DL.DD5.1.H264
Language : English
Default : Yes
Forced : No
Color range : Limited
Color primaries : BT.709
Transfer characteristics : BT.709
Matrix coefficients : BT.709

Audio
ID : 2
Format : AC-3
Format/Info : Audio Coding 3
Format settings, Endianness : Big
Codec ID : A_AC3
Duration : 1 h 37 min
Bit rate mode : Constant
Bit rate : 384 kb/s
Channel(s) : 6 channels
Channel positions : Front: L C R, Side: L R, LFE
Sampling rate : 48.0 kHz
Frame rate : 31.250 FPS (1536 spf)
Bit depth : 16 bits
Compression mode : Lossy
Delay relative to video : -43 ms
Stream size : 269 MiB (8%)
Title : The.Boss.Baby.2017.1080p.WEB-DL.DD5.1.H264
Language : English
Service kind : Complete Main
Default : Yes
Forced : No

Text
ID : 3
Format : UTF-8
Codec ID : S_TEXT/UTF8
Codec ID/Info : UTF-8 Plain Text
Language : English
Default : Yes
Forced : No



หมายเหตุ ทุกเว็บโหลดแทนกันได้ แต่ต้องเปลี่ยนชื่อให้เรียงกันด้วย

Cloud2free

สำหรับสมาชิก VIP เท่านั้น!

%d bloggers like this: