[MINI-HD 1080P] Ajin: Demi-Human (2017) อาจิน ฅนไม่รู้จักตาย [พากย์ไทย 5.1 + ญี่ปุ่น 5.1] [ซับไทย] [MASTER] [MKV] [ONE2UP]

[MINI-HD 1080P] Ajin: Demi-Human (2017) อาจิน ฅนไม่รู้จักตาย

เรื่องราวเริ่มต้นเมื่อ 17 ปีก่อน ในทวีปแอฟริกา ได้มีการค้นพบสิ่งมีชีวิตที่ฆ่าไม่ตายที่ถูกเรียกว่า “อาจิน” ซึ่งถือเป็นสิ่งมีชีวิตสายพันธุ์ใหม่ที่มีมูลค่าสูงมาก และเป็นที่ต้องการของรัฐบาล โดยมีการตั้งรางวัลขึ้นหากจับตัวพวกมันได้ พวกอาจินสามารถอาศัยและปะปนรวมอยู่กับมนุษย์อย่างกลมกลืนโดยไม่สามารถแยกออกได้

“นากาอิ เคย์” นักเรียนมัธยมปลายได้ประสบอุบัติเหตุโดนรถชน แต่เขาไม่ตาย ตรงกันข้ามเขากลายเป็นอาจิน เขาจึงเป็นที่ต้องการตัวของรัฐบาล ขณะเดียวกัน “ซาโต้” ผู้ซึ่งเป็นอาจินก็พยายามช่วยเหลือเคย์และหาทางพาเคย์เข้าร่วมกลุ่มก่อการร้ายต่อต้านรัฐบาล แต่เคย์ปฏิเสธเพราะไม่เห็นด้วยกับวิธีการของซาโต้ และนี่คือเรื่องราวสุดเข้มข้นของการไล่ล่าและการเชือดเฉือนระหว่างมนุษย์และอาจิน รวมถึงอาจินด้วยกันเอง

Ajin.Demi-Human.2017.1080p.WEB-DL.AAC&AC3.x264[Load2up.com].mkv
Format : Matroska
Format version : Version 4 / Version 2
File size : 4.33 GiB
Duration : 1 h 48 min
Overall bit rate : 5 728 kb/s
Encoded date : UTC 2018-04-04 17:05:55
Writing application : mkvmerge v20.0.0 (‘I Am The Sun’) 64-bit
Writing library : libebml v1.3.5 + libmatroska v1.4.8

Video
ID : 1
Format : AVC
Format/Info : Advanced Video Codec
Format profile : [email protected]
Format settings, CABAC : Yes
Format settings, ReFrames : 5 frames
Codec ID : V_MPEG4/ISO/AVC
Duration : 1 h 48 min
Bit rate : 4 540 kb/s
Width : 1 912 pixels
Height : 800 pixels
Display aspect ratio : 2.40:1
Frame rate mode : Constant
Frame rate : 23.976 (23976/1000) FPS
Color space : YUV
Chroma subsampling : 4:2:0
Bit depth : 8 bits
Scan type : Progressive
Bits/(Pixel*Frame) : 0.124
Stream size : 3.43 GiB (79%)
Language : English
Default : Yes
Forced : No
Color range : Limited
Color primaries : BT.709
Transfer characteristics : BT.709
Matrix coefficients : BT.709

Audio #1
ID : 2
Format : AC-3
Format/Info : Audio Coding 3
Format settings, Endianness : Big
Codec ID : A_AC3
Duration : 1 h 48 min
Bit rate mode : Constant
Bit rate : 640 kb/s
Channel(s) : 6 channels
Channel positions : Front: L C R, Side: L R, LFE
Sampling rate : 48.0 kHz
Frame rate : 31.250 FPS (1536 spf)
Bit depth : 16 bits
Compression mode : Lossy
Delay relative to video : -42 ms
Stream size : 495 MiB (11%)
Language : Thai
Service kind : Complete Main
Default : Yes
Forced : No

Audio #2
ID : 3
Format : AAC
Format/Info : Advanced Audio Codec
Format profile : LC
Codec ID : A_AAC
Duration : 1 h 48 min
Bit rate : 125 kb/s
Channel(s) : 2 channels
Channel positions : Front: L R
Sampling rate : 48.0 kHz
Frame rate : 46.875 FPS (1024 spf)
Compression mode : Lossy
Delay relative to video : -42 ms
Stream size : 97.1 MiB (2%)
Language : Japanese
Default : No
Forced : No

Audio #3
ID : 4
Format : AC-3
Format/Info : Audio Coding 3
Format settings, Endianness : Big
Codec ID : A_AC3
Duration : 1 h 48 min
Bit rate mode : Constant
Bit rate : 384 kb/s
Channel(s) : 6 channels
Channel positions : Front: L C R, Side: L R, LFE
Sampling rate : 48.0 kHz
Frame rate : 31.250 FPS (1536 spf)
Bit depth : 16 bits
Compression mode : Lossy
Delay relative to video : -42 ms
Stream size : 297 MiB (7%)
Language : Japanese
Service kind : Complete Main
Default : No
Forced : No

Text #1
ID : 5
Format : PGS
Codec ID : S_HDMV/PGS
Codec ID/Info : Picture based subtitle format used on BDs/HD-DVDs
Duration : 1 h 43 min
Bit rate : 29.9 kb/s
Count of elements : 2218
Stream size : 22.1 MiB (0%)
Language : Thai
Default : Yes
Forced : No

Text #2
ID : 6
Format : VobSub
Codec ID : S_VOBSUB
Codec ID/Info : Picture based subtitle format used on DVDs
Duration : 1 h 43 min
Bit rate : 6 493 b/s
Count of elements : 1109
Stream size : 4.80 MiB (0%)
Language : Thai
Default : No
Forced : No



หมายเหตุ ทุกเว็บโหลดแทนกันได้ แต่ต้องเปลี่ยนชื่อให้เรียงกันด้วย

สำหรับสมาชิก VIP เท่านั้น!

[restrict …]

|——————————————————————|

|——————————————————————|

[/restrict]