[MINI-HD 1080P] 10000 BC (2008) บุกอาณาจักรโลก 10000 ปี [เสียง:ไทย 5.1 อังกฤษ 5.1] [บรรยายไทย อังกฤษ] [MASTER] [MKV] [ONE2UP]

[MINI-HD 1080P] 10000 BC (2008) บุกอาณาจักรโลก 10000 ปี

เรื่องย่อ 10000 BC (2008) บุกอาณาจักรโลก 10,000 ปี จากโรแลนด์ เอ็มเมอริช ผู้กำกับ ไอดี 4 สงครามวันดับโลก และเดอะ เดย์ อ๊าฟเตอร์ ทูมอร์โรว์ วิกฤตวันสิ้นโลก สู่การผจญภัยสุดตื่นตาเรื่องใหม่ที่ย้อนคุณสู่ยุคแมม ม็อธครองโลก และ.ความเชื่ออันลี้ลับที่บงการชะตากรรมของมนุษย์ สุดยอดอภิมหภาพยนตร์สเปเชียลเอฟเฟ็กต์ตระการตาเรื่อง นี้ เล่าถึงวีรกรรมของวีรบุรุษคนแรก.(สตีเว่น สเตรท).ผู้ออกเดินทางฝ่าอันตรายสุดขอบโลกเพื่อช่วยเห ลือหญิงสาวคนรักที่ถูกจับตัวไป(คามิลล่า เบลล์)โดยมีแรงขับจากคำพยากรณ์ เขาต้องต่อสู้กับเสือเขี้ยวดาบ และ.นักล่าแห่งยุคดึกดำบรรพ์ ผ่านอาณาจักที่ไม่เคยรู้จักรวบรวมกลุ่มนักรบ และค้นพบดินแดนอารยธรรที่สูญหาย ณ ที่นั้น เขาจะเป็นผู้นำในการต่อสู้เพื่ออิสรภาพของเธอและกลายเป็นมหาบุรุษแห่งยุค ที่ตำนานเพิ่งเริ่มต้น

10000.BC.2008.1080p.BDRip[Load2up.com].mkv
Format : Matroska
Format version : Version 4 / Version 2
File size : 4.22 GiB
Duration : 1 h 48 min
Overall bit rate : 5 542 kb/s
Movie name : 10000.BC.2008.1080p.BDRip
Encoded date : UTC 2017-04-03 10:06:11
Writing application : mkvmerge v9.7.1 (‘Pandemonium’) 64bit
Writing library : libebml v1.3.4 + libmatroska v1.4.5

Video
ID : 1
Format : AVC
Format/Info : Advanced Video Codec
Format profile : High@L4
Format settings, CABAC : Yes
Format settings, ReFrames : 4 frames
Codec ID : V_MPEG4/ISO/AVC
Duration : 1 h 48 min
Bit rate : 4 244 kb/s
Width : 1 920 pixels
Height : 800 pixels
Display aspect ratio : 2.40:1
Frame rate mode : Constant
Frame rate : 23.976 (24000/1001) FPS
Color space : YUV
Chroma subsampling : 4:2:0
Bit depth : 8 bits
Scan type : Progressive
Bits/(Pixel*Frame) : 0.115
Stream size : 3.23 GiB (77%)
Title : 10000.BC.2008.1080p.BDRip
Writing library : x264 core 148 r2579 73ae2d1
Language : English
Default : Yes
Forced : No

Audio #1
ID : 2
Format : AC-3
Format/Info : Audio Coding 3
Format settings, Endianness : Big
Codec ID : A_AC3
Duration : 1 h 48 min
Bit rate mode : Constant
Bit rate : 640 kb/s
Channel(s) : 6 channels
Channel positions : Front: L C R, Side: L R, LFE
Sampling rate : 48.0 kHz
Frame rate : 31.250 FPS (1536 spf)
Bit depth : 16 bits
Compression mode : Lossy
Stream size : 499 MiB (12%)
Title : Eng AC3 5.1
Language : English
Service kind : Complete Main
Default : No
Forced : No

Audio #2
ID : 3
Format : AC-3
Format/Info : Audio Coding 3
Format settings, Endianness : Big
Codec ID : A_AC3
Duration : 1 h 48 min
Bit rate mode : Constant
Bit rate : 640 kb/s
Channel(s) : 6 channels
Channel positions : Front: L C R, Side: L R, LFE
Sampling rate : 48.0 kHz
Frame rate : 31.250 FPS (1536 spf)
Bit depth : 16 bits
Compression mode : Lossy
Stream size : 499 MiB (12%)
Title : Thai AC3 5.1
Language : Thai
Service kind : Complete Main
Default : Yes
Forced : Yes

Text #1
ID : 4
Format : VobSub
Muxing mode : zlib
Codec ID : S_VOBSUB
Codec ID/Info : Picture based subtitle format used on DVDs
Duration : 1 h 48 min
Bit rate : 2 834 b/s
Count of elements : 745
Stream size : 2.19 MiB (0%)
Title : 1080P
Language : English
Default : No
Forced : No

Text #2
ID : 5
Format : VobSub
Muxing mode : zlib
Codec ID : S_VOBSUB
Codec ID/Info : Picture based subtitle format used on DVDs
Duration : 1 h 47 min
Bit rate : 851 b/s
Count of elements : 628
Stream size : 672 KiB (0%)
Title : 480P
Language : Thai
Default : No
Forced : No

Text #3
ID : 6
Format : VobSub
Muxing mode : zlib
Codec ID : S_VOBSUB
Codec ID/Info : Picture based subtitle format used on DVDs
Duration : 1 h 47 min
Bit rate : 2 407 b/s
Count of elements : 628
Stream size : 1.86 MiB (0%)
Title : 1080P BD MASTER
Language : Thai
Default : Yes
Forced : Yes

Text #4
ID : 7
Format : VobSub
Muxing mode : zlib
Codec ID : S_VOBSUB
Codec ID/Info : Picture based subtitle format used on DVDs
Duration : 1 h 47 min
Bit rate : 2 405 b/s
Count of elements : 628
Stream size : 1.85 MiB (0%)
Title : 1080P YELLOW
Language : Thai
Default : No
Forced : No

Text #5
ID : 8
Format : VobSub
Muxing mode : zlib
Codec ID : S_VOBSUB
Codec ID/Info : Picture based subtitle format used on DVDs
Duration : 1 h 47 min
Bit rate : 2 404 b/s
Count of elements : 628
Stream size : 1.85 MiB (0%)
Title : 1080P UNDER
Language : Thai
Default : No
Forced : No

Text #6
ID : 9
Format : PGS
Muxing mode : zlib
Codec ID : S_HDMV/PGS
Codec ID/Info : Picture based subtitle format used on BDs/HD-DVDs
Duration : 1 h 47 min
Bit rate : 2 585 b/s
Count of elements : 1256
Stream size : 1.99 MiB (0%)
Title : BD MASTER
Language : Thai
Default : No
Forced : No

Text #7
ID : 10
Format : PGS
Muxing mode : zlib
Codec ID : S_HDMV/PGS
Codec ID/Info : Picture based subtitle format used on BDs/HD-DVDs
Duration : 1 h 47 min
Bit rate : 2 585 b/s
Count of elements : 1256
Stream size : 1.99 MiB (0%)
Title : BD UNDER
Language : Thai
Default : No
Forced : No



หมายเหตุ ทุกเว็บโหลดแทนกันได้ แต่ต้องเปลี่ยนชื่อให้เรียงกันด้วย

Cloud2free

สำหรับสมาชิก VIP เท่านั้น!

%d bloggers like this: