Home > หนัง Zoom > [Zoom] Kingsman: The Golden Circle (2017) คิงส์แมน รวมพลังโคตรพยัคฆ์ (HD-CAM) [พากย์ไทยโรง + รัสเซีย] [MKV] [ONE2UP]

[Zoom] Kingsman: The Golden Circle (2017) คิงส์แมน รวมพลังโคตรพยัคฆ์ (HD-CAM) [พากย์ไทยโรง + รัสเซีย] [MKV] [ONE2UP]

[Zoom] Kingsman: The Golden Circle (2017) คิงส์แมน รวมพลังโคตรพยัคฆ์

Kingsman: The Golden Circle เมื่อสำนักงานใหญ่ Kingsman ทั่วโลกของเหล่าสายลับถูกทำลายลง และเหล่าผู้ก่อการร้ายได้เริ่มวางแผนการก่อความวุ่นวายครั้งใหม่ ทำให้เหล่าสายลับ Kingsman ต้องร่วมมือกับองค์กรสายลับพันธมิตรจากสหรัฐอเมริกา เพื่อขัดขวางแผนการร้ายของเหล่าผู้ก่อการร้าย

Kingsman2017_720pThaiRong.2.0[Load2up.com].mkv
Format : Matroska
Format version : Version 4 / Version 2
File size : 3.70 GiB
Duration : 2 h 15 min
Overall bit rate mode : Variable
Overall bit rate : 3 903 kb/s
Movie name : Kingsman.The.Golden.Circle.2017.TS.720p.ThaiRong.2.0
Writing application : mkvmerge v9.9.0 (‘Pick Up’) 64bit
Writing library : libebml v1.3.4 + libmatroska v1.4.5

Video
ID : 1
Format : AVC
Format/Info : Advanced Video Codec
Format profile : [email protected]
Format settings, CABAC : Yes
Format settings, ReFrames : 12 frames
Codec ID : V_MPEG4/ISO/AVC
Duration : 2 h 15 min
Bit rate mode : Variable
Bit rate : 3 325 kb/s
Maximum bit rate : 3 500 kb/s
Width : 1 280 pixels
Height : 528 pixels
Display aspect ratio : 2.40:1
Frame rate mode : Constant
Frame rate : 23.976 (24000/1001) FPS
Standard : Component
Color space : YUV
Chroma subsampling : 4:2:0
Bit depth : 8 bits
Scan type : Progressive
Bits/(Pixel*Frame) : 0.205
Stream size : 3.16 GiB (85%)
Title : Kingsman.The.Golden.Circle.2017.TS.720p.ThaiRong.2.0
Language : Russian
Default : Yes
Forced : No
Color range : Limited
Color primaries : BT.709
Transfer characteristics : BT.709
Matrix coefficients : BT.709

Audio #1
ID : 2
Format : AC-3
Format/Info : Audio Coding 3
Format settings, Endianness : Big
Codec ID : A_AC3
Duration : 2 h 15 min
Bit rate mode : Constant
Bit rate : 192 kb/s
Channel(s) : 2 channels
Channel positions : Front: L R
Sampling rate : 48.0 kHz
Frame rate : 31.250 FPS (1536 spf)
Bit depth : 16 bits
Compression mode : Lossy
Stream size : 187 MiB (5%)
Title : ThaIRonG 2.0 AC-3
Language : Thai
Service kind : Complete Main
Default : Yes
Forced : No

Audio #2
ID : 3
Format : AC-3
Format/Info : Audio Coding 3
Format settings, Endianness : Big
Codec ID : A_AC3
Duration : 2 h 15 min
Bit rate mode : Constant
Bit rate : 384 kb/s
Channel(s) : 2 channels
Channel positions : Front: L R
Sampling rate : 48.0 kHz
Frame rate : 31.250 FPS (1536 spf)
Bit depth : 16 bits
Compression mode : Lossy
Stream size : 373 MiB (10%)
Title : Russian 2.0 AC-3
Language : Russian
Service kind : Complete Main
Default : No
Forced : No



หมายเหตุ ทุกเว็บโหลดแทนกันได้ แต่ต้องเปลี่ยนชื่อให้เรียงกันด้วย

สำหรับสมาชิก VIP เท่านั้น!

[restrict …]

|——————————————————————|

|——————————————————————|

[/restrict]